<?xml version="1.0" standalone="no"?>
<!DOCTYPE svg PUBLIC "-//W3C//DTD SVG 1.1//EN" "http://www.w3.org/Graphics/SVG/1.1/DTD/svg11.dtd" >
<svg xmlns="http://www.w3.org/2000/svg">
<metadata></metadata>
<defs>
<font id="simplicitymedium" horiz-adv-x="583" >
<font-face units-per-em="1000" ascent="800" descent="-200" />
<missing-glyph horiz-adv-x="300" />
<glyph unicode="&#xd;" horiz-adv-x="333" />
<glyph unicode=" "  horiz-adv-x="300" />
<glyph unicode="&#x09;" horiz-adv-x="300" />
<glyph unicode="&#xa0;" horiz-adv-x="300" />
<glyph unicode="!" horiz-adv-x="174" d="M120 152q0 88 2 263t2 262q0 8 6 14t14 6t14 -6t6 -14q0 -87 -2 -262t-2 -263q0 -8 -6 -14t-14 -6t-14 6t-6 14zM157 33q0 -8 -6 -14t-14 -6t-14 6t-6 14t6 14t14 6t14 -6t6 -14z" />
<glyph unicode="&#x22;" horiz-adv-x="247" d="M83 687q3 -27 4 -58q2 -32 2.5 -52t0 -61t-0.5 -53q0 -8 -6 -14t-14 -6t-14 6t-6 14q0 13 0.5 53.5t0 60t-2 50t-4.5 56.5q-1 8 4 14.5t13.5 7.5t15 -4t7.5 -14zM238 677l-2 -105q-2 -61 2 -101q1 -8 -4.5 -14.5t-13.5 -7.5t-14.5 4.5t-7.5 13.5q-4 43 -2 106 q0 12 0.5 33t1 38.5t0.5 32.5q0 8 6 14t14 6t14 -6t6 -14z" />
<glyph unicode="#" horiz-adv-x="671" d="M234 194v-169q0 -8 -6 -14t-14 -6t-14 6t-6 14v169h-123q-8 0 -14 6t-6 14t6 14t14 6h123q1 40 1 123t1 125h-126q-8 0 -14 6t-6 14t6 14t14 6h126v162q0 8 6 14t14 6t14 -6t6 -14v-162q39 0 125.5 0.5t132.5 0.5v162q0 8 6 14t14 6t14 -6t6 -14v-162h106q8 0 14 -6 t6 -14t-6 -14t-14 -6h-106q-1 -42 -1 -125t-1 -123h109q8 0 14 -6t6 -14t-6 -14t-14 -6h-109v-169q0 -8 -6 -14t-14 -6t-14 6t-6 14v169q-45 0 -131 -0.5t-127 -0.5zM234 234q41 0 127 0.5t131 0.5q1 40 1 122.5t1 125.5q-46 0 -132.5 -0.5t-125.5 -0.5q-1 -42 -1 -125 t-1 -123z" />
<glyph unicode="$" horiz-adv-x="452" d="M226 455q0 85 -1 151q-34 -18 -43 -52q-10 -41 20 -76q10 -11 24 -23zM304 399q0 132 -1 220q-19 2 -38 0q1 -81 1 -194l25 -17zM345 320q1 -181 2 -275q50 22 67 57q19 38 11 92q-9 68 -80 126zM267 376q1 -256 2 -350q19 2 38 6q-1 97 -2 318l-37 25zM343 651 q47 -14 78.5 -49.5t33.5 -88.5q0 -8 -5.5 -14.5t-13.5 -6.5t-14.5 5.5t-6.5 13.5q-1 35 -20.5 60t-51.5 38q1 -90 2 -238q49 -36 80.5 -76.5t39.5 -94.5q9 -66 -15 -116q-27 -54 -103 -82v-88q0 -8 -6 -14t-14 -6t-14 6t-6 14v77q-19 -3 -38 -5v-72q0 -8 -6 -14t-14 -6 t-14 6t-6 14v72q-15 0 -29 3q-84 13 -126 70q-50 65 -25 169q1 9 8 13t15.5 2.5t12.5 -8.5t2 -15q-19 -87 19 -137q32 -44 100 -55q11 -2 23 -2q0 83 -3 378q-35 26 -54 48q-44 51 -28 112q16 62 81 86v91q0 8 6 14t14 6t14 -6t6 -14v-82q19 2 38 0v82q0 8 6 14t14 6t14 -6 t6 -14v-90z" />
<glyph unicode="%" horiz-adv-x="771" d="M645 295q7 3 15 -1q37 -15 61.5 -39t34 -50.5t8.5 -53.5t-13 -51q-25 -51 -75 -65q-56 -16 -109 28q-24 20 -34.5 51t-7 61t17.5 56q22 45 62 59q19 7 40 5zM180 624q7 3 15 -1q37 -15 61.5 -39t34 -50.5t8.5 -53.5t-13 -51q-25 -51 -75 -65q-56 -16 -109 28 q-24 20 -34.5 51t-7 61t17.5 56q22 45 62 59q19 7 40 5zM675 241q-31 21 -57 11q-24 -9 -40 -39t-12.5 -65t27.5 -55q36 -30 72 -20q33 9 50 44q9 19 9.5 39t-10.5 42.5t-34 39.5q-3 1 -5 3zM210 570q-31 21 -57 11q-24 -9 -40 -39t-12.5 -65t27.5 -55q36 -30 72 -20 q33 9 50 44q9 19 9.5 39t-10.5 42.5t-34 39.5q-3 1 -5 3zM229 33l344 639q4 7 11.5 9.5t15 -2t10 -12t-2.5 -15.5l-344 -639q-4 -7 -12 -9t-15 2t-9 12t2 15z" />
<glyph unicode="&#x26;" horiz-adv-x="551" d="M193 398q-37 -39 -60 -68q-67 -88 -67 -173q0 -36 9 -52q27 -46 73 -63t95 -6t93 45q17 13 31 31q-32 36 -63 82q-62 92 -111 204zM207 471l33 35q3 3 10 11l10 11l9 11q6 7 9 11l7 12q4 6 6.5 11.5t4.5 10.5q5 21 -4 35q-8 13 -27 19t-42 2.5t-37 -15.5q-8 -7 -10 -26 q-1 -19 5 -48q7 -31 26 -80zM405 342q60 6 108 -1q8 -1 13 -8t4 -15t-8 -13t-15 -4q-13 2 -27 3v-7q-19 -112 -61 -181q55 -55 107 -69q8 -2 12 -9t2 -15t-9 -12t-15 -2q-60 16 -121 74q-16 -19 -35 -34q-49 -39 -108 -53q-59 -13 -117.5 8t-93.5 81q-15 25 -15 72 q0 97 76 197q26 34 69 79l6 6l-2 4q-26 69 -33 99q-8 35 -6 60q3 35 24 53q23 20 56 25q34 6 62 -4q32 -11 48 -36q18 -28 8 -66q-2 -9 -7 -19t-9.5 -17.5t-12.5 -17.5t-12 -14l-13 -15q-9 -10 -10 -11l-47 -50q49 -117 114 -214q26 -38 53 -69q34 60 50 156v1q-15 0 -31 -2 q-8 -1 -14.5 4.5t-7.5 13.5t4.5 14.5t13.5 7.5z" />
<glyph unicode="'" horiz-adv-x="125" d="M112 682q6 -45 0 -122q-7 -96 -7 -117q0 -8 -6 -14t-14 -6t-14 6t-6 14q0 23 7 120q6 71 0 113q-1 9 4 15.5t13.5 7.5t15 -4t7.5 -13z" />
<glyph unicode="(" horiz-adv-x="263" d="M285 677q-89 -109 -129.5 -284t-6.5 -309q7 -26 16.5 -51t27.5 -55l25 -44q8 -15 33.5 -53.5t31.5 -46.5q4 -7 2.5 -15t-8.5 -12.5t-15 -3t-13 8.5q-4 7 -30 46t-35 54l-27 48q-18 31 -28.5 58t-17.5 56q-37 144 5.5 328.5t138.5 300.5q5 6 13 7t14.5 -4.5t7.5 -13.5 t-5 -15z" />
<glyph unicode=")" horiz-adv-x="221" d="M61 699q6 -11 36 -58q23 -37 35 -63q66 -144 77.5 -274t-25 -249t-122.5 -254q-5 -7 -13 -8.5t-15 3t-8.5 12.5t2.5 15q83 130 118 243t24 235.5t-74 260.5q-11 22 -33 58q-30 48 -36 59q-4 7 -2 15t9 12t15 2t12 -9z" />
<glyph unicode="*" horiz-adv-x="319" d="M180 679q0 -64 1 -76q1 -7 2 -11q6 0 25 5q50 12 79 17q8 1 14.5 -4t8 -13t-3.5 -14.5t-13 -8.5q-27 -4 -75 -16q-15 -4 -22 -5l14 -19q29 -39 37 -51q4 -7 2.5 -15t-8.5 -12.5t-15 -3t-13 8.5q-7 11 -35 49l-17 25l-44 -79q-4 -8 -12 -10.5t-15.5 1.5t-10 12t1.5 15 l46 84q-45 7 -74 13q-9 2 -13 9t-2.5 15.5t8.5 12.5t15 3q31 -7 81 -15q0 1 -1 3q-1 14 -1 80q0 8 6 14t14 6t14 -6t6 -14z" />
<glyph unicode="+" horiz-adv-x="528" d="M294 272q117 0 205 -4q8 0 13.5 -6.5t5.5 -14.5t-6.5 -13.5t-14.5 -5.5q-87 4 -203 5q-2 -139 -2 -216q0 -8 -6 -14t-14 -6t-14 6t-6 14q0 77 2 216q-36 0 -107 -0.5t-105 -0.5q-8 0 -14 6t-6 14t6 14t14 6q34 0 105 0.5t107 0.5q2 135 2 211q0 8 6 14t14 6t14 -6t6 -14 q0 -76 -2 -212z" />
<glyph unicode="," horiz-adv-x="156" d="M111 97q25 -35 32.5 -73.5t-4.5 -77.5t-45 -68q-6 -5 -14.5 -4.5t-13.5 6.5t-4.5 14.5t6.5 13.5q36 32 38 78t-27 87q-5 7 -3.5 15.5t8 13t15 3t12.5 -7.5z" />
<glyph unicode="-" horiz-adv-x="279" d="M29 290q124 -4 219 0q9 0 15 -5.5t6 -14t-5.5 -14.5t-13.5 -6q-97 -4 -223 0q-8 0 -13.5 6t-5.5 14.5t6 14t15 5.5z" />
<glyph unicode="." horiz-adv-x="63" d="M53 31q0 -8 -6 -14t-14 -6t-14 6t-6 14t6 14t14 6t14 -6t6 -14z" />
<glyph unicode="/" horiz-adv-x="270" d="M6 32l25 84l25 79l28 86l26 79l29 86l27 78l30 85l28 80q3 7 10.5 11t15 1t11.5 -10.5t1 -15.5q-6 -16 -28 -79l-29 -85l-28 -79l-28 -84l-27 -79l-28 -85l-25 -79l-25 -85q-2 -8 -9.5 -12t-15.5 -1.5t-12 10t-1 15.5z" />
<glyph unicode="0" horiz-adv-x="442" d="M234 677q6 6 15 5q97 -10 149 -125q44 -98 41 -233q-3 -134 -51 -225q-57 -107 -151 -101q-47 3 -82 23.5t-56.5 53.5t-33.5 71t-16 83q-7 82 8 171q15 87 42 146q29 63 70 99q31 27 65 32zM275 633q-40 16 -80 -18q-35 -30 -60 -85q-24 -54 -38.5 -137.5t-7.5 -159.5 q8 -86 44.5 -138.5t105.5 -56.5q68 -5 113 80q44 84 47 207q3 126 -37 215q-31 67 -79 91q-4 0 -8 2z" />
<glyph unicode="1" horiz-adv-x="118" d="M66 20q0 110 1 329.5t1 329.5q0 8 6 14t14 6t14 -6t6 -14q0 -110 -1 -329.5t-1 -329.5q0 -8 -6 -14t-14 -6t-14 6t-6 14z" />
<glyph unicode="2" horiz-adv-x="487" d="M64 478q17 73 56 119t85 60.5t95 5.5q73 -14 118 -73q44 -60 22 -137q-16 -58 -78 -113q-15 -13 -33.5 -27t-46 -33t-37.5 -27q-66 -48 -103 -94.5t-42 -110.5q58 -2 166 1q155 4 191 4q8 0 14 -6t6 -14t-6 -14t-14 -6q-36 0 -190 -4q-130 -3 -192 0q-8 0 -13.5 6.5 t-5.5 14.5q0 5 3 10q2 42 15.5 79t39 67.5t49.5 52t59 46.5q10 8 36.5 26.5t43.5 32.5l34 26q53 47 66 93q16 58 -17.5 103.5t-92.5 57.5q-38 7 -74 -4t-68 -49.5t-46 -100.5q-2 -9 -9 -13t-15.5 -2.5t-12.5 8.5t-3 15z" />
<glyph unicode="3" horiz-adv-x="473" d="M48 544q8 68 63.5 103.5t121.5 32.5q69 -3 112 -43q51 -47 43 -122q-7 -65 -62 -113q33 -7 60 -25q39 -26 61.5 -70.5t22.5 -99.5q0 -69 -26 -110q-38 -59 -110 -89q-71 -31 -144 -24q-78 7 -123 55q-53 53 -46 142q1 9 7 14.5t14.5 4.5t14 -7t4.5 -14q-5 -72 34 -113 q36 -36 99 -42q62 -6 123 20q62 26 93 75q20 31 20 88q0 46 -18 81.5t-48 55.5q-45 30 -103 20q-22 -9 -47 -15l-3 -2q-8 -4 -15.5 -1t-11.5 10q-3 8 -1 15.5t9 11.5q4 2 9 4q24 10 49 15q21 9 39 21q23 17 39.5 43t19.5 53q6 55 -30 88q-33 31 -87 33q-54 3 -96 -24 q-42 -28 -47 -76q-1 -9 -7.5 -14t-15 -4t-13.5 7.5t-4 14.5z" />
<glyph unicode="4" horiz-adv-x="540" d="M84 273q-3 -1 -6 -1q-8 0 -14 6t-6 14v1q0 64 1 193t1 194q0 8 6 14t14 6t14 -6t6 -14q0 -64 -1 -187t-1 -180q61 0 174 -0.5t137 -0.5q1 266 1 372q0 8 6 14t14 6t14 -6t6 -14q0 -106 -1 -372h61q8 0 14 -6t6 -14t-6 -14t-14 -6h-61q-1 -148 -1 -247q0 -8 -6 -14t-14 -6 t-14 6t-6 14q0 99 1 247q-16 0 -138.5 0.5t-186.5 0.5z" />
<glyph unicode="5" horiz-adv-x="498" d="M126 394v-3q0 -8 -6 -14t-14 -6t-14 6t-6 14v5v239q-2 4 -2 9q0 9 7 15q6 7 15 7q5 0 9 -2q50 0 153.5 0.5t156.5 0.5q8 0 14 -6t6 -14t-6 -14t-14 -6q-53 0 -153 -0.5t-146 -0.5v-146q30 32 90 52q69 24 125.5 -8t94.5 -98q34 -59 47 -129q13 -69 0 -124 q-22 -91 -92 -142t-154 -50q-86 0 -150 54t-72 152q-1 9 4.5 15t14 7t14.5 -4.5t7 -13.5q7 -82 58.5 -126t123 -44.5t130.5 42.5t78 120q10 44 -1.5 107t-42.5 116q-32 57 -76.5 81.5t-96.5 6.5q-45 -15 -69 -37t-33 -61z" />
<glyph unicode="6" horiz-adv-x="493" d="M145 132q41 -87 124 -104q61 -14 108.5 32.5t61.5 122.5q15 75 -12 127q-28 54 -95 54q-74 0 -133 -53q-43 -38 -51 -87q-8 -43 -3 -92zM389 508q-4 29 -21 60.5t-42 51.5q-25 21 -50 22q-27 1 -54 -23q-48 -44 -79 -136t-30 -190q0 -19 2 -37q15 47 58 85q71 63 159 63 q91 0 130 -76q34 -64 17 -152q-8 -40 -26 -76.5t-45 -65.5t-65.5 -42t-81.5 -4q-86 19 -135 95q-14 2 -17 17q-1 11 -3 21q-32 73 -33 172q-1 105 32.5 205t90.5 151q38 34 82 33q38 -2 74 -31q30 -25 51 -63t26 -76q1 -8 -4 -14.5t-13.5 -7.5t-15 4t-7.5 14z" />
<glyph unicode="7" horiz-adv-x="487" d="M456 662q5 0 10 -2q7 -4 10 -11.5t-1 -15.5q-176 -361 -288 -621q-3 -7 -10.5 -10.5t-15 0t-11 11t0.5 15.5q108 252 274 594q-60 0 -193 3t-203 3q-8 0 -14 6t-6 14t6 14t14 6q71 0 213.5 -3t213.5 -3z" />
<glyph unicode="8" horiz-adv-x="457" d="M271 374q64 21 92.5 66.5t20.5 93.5q-9 51 -52 80t-109 14q-54 -13 -80 -53.5t-19 -87.5q7 -45 44 -77.5t103 -35.5zM323 353q74 -28 109 -81q35 -52 27 -112q-9 -72 -72 -120q-64 -48 -156 -42q-102 7 -150 66t-35 135q9 50 45 92.5t91 62.5q-41 19 -66 52.5t-32 73.5 q-9 62 26 116t105 70q82 19 139.5 -19.5t68.5 -106.5q9 -54 -16.5 -105t-83.5 -82zM252 329q-69 -6 -113 -45.5t-53 -91.5q-11 -58 26 -103t121 -51q78 -5 128.5 33.5t57.5 93.5q7 53 -32 100t-127 65q-4 -1 -8 -1z" />
<glyph unicode="9" horiz-adv-x="445" d="M391 466q-1 50 -16 78q-25 49 -68.5 71t-87.5 15t-75 -42t-34 -96q-3 -60 32.5 -102t87.5 -50q51 -8 96 23t65 103zM399 582v10q0 8 6 14t14 6t14 -6t6 -14q0 -97 -1 -290.5t-1 -290.5q0 -8 -6 -14t-14 -6t-14 6t-6 14q0 75 1 373q-31 -49 -77.5 -70t-96.5 -13 q-67 10 -112.5 63.5t-41.5 129.5q4 74 44 120.5t99 55.5q52 8 102.5 -15t83.5 -73z" />
<glyph unicode=":" horiz-adv-x="169" d="M157 454q0 -8 -6 -14t-14 -6t-14 6t-6 14t6 14t14 6t14 -6t6 -14zM159 55q0 -8 -6 -14t-14 -6t-14 6t-6 14t6 14t14 6t14 -6t6 -14z" />
<glyph unicode=";" horiz-adv-x="201" d="M169 75q31 -53 20 -103q-10 -49 -59 -86q-6 -5 -14.5 -4t-13.5 7.5t-4 15t8 13.5q37 28 44 63q8 34 -15 74q-4 7 -2 15t9 12t15 2t12 -9zM158 440q0 -8 -6 -14t-14 -6t-14 6t-6 14t6 14t14 6t14 -6t6 -14z" />
<glyph unicode="&#x3c;" horiz-adv-x="550" d="M522 448q-87 -47 -244 -113l-199 -84q80 -26 203 -75q204 -81 248 -97q7 -3 11 -10.5t1 -15t-10.5 -11.5t-15.5 -1q-56 20 -249 97q-162 65 -249 90q-8 2 -12 9.5t-1 15.5q0 2 2 4q3 7 10 10q30 14 246 105q155 65 239 112q8 4 16 1.5t12 -10t1.5 -15.5t-9.5 -12z" />
<glyph unicode="=" horiz-adv-x="525" d="M42 166q253 9 453 9q8 0 14 -6t6 -14t-6 -14t-14 -6q-200 0 -451 -9q-9 0 -15 5.5t-6 14t5.5 14.5t13.5 6zM51 363h427q8 0 14 -6t6 -14t-6 -14t-14 -6h-427q-8 0 -14 6t-6 14t6 14t14 6z" />
<glyph unicode="&#x3e;" horiz-adv-x="548" d="M528 226q-85 -46 -244 -113l-245 -104q-7 -4 -15 -1t-11.5 10.5t-0.5 15.5t11 11q30 14 246 105q132 56 204 93l-208 82q-166 66 -249 90q-8 2 -12 9.5t-1.5 15.5t10 12t15.5 1q97 -28 252 -90q197 -79 248 -97q7 -3 11 -10.5t1 -15.5q-2 -5 -6 -9q-3 -3 -6 -5z" />
<glyph unicode="?" horiz-adv-x="415" d="M47 510q0 63 49.5 106.5t115.5 54.5q68 11 120 -19q60 -34 72 -110q11 -74 -35.5 -136.5t-117.5 -80.5q-9 -3 -54 -5q-18 -1 -26 -2h-5q-1 -6 -2 -17q-2 -22 0 -59q1 -6 9 -106q1 -9 -4.5 -15t-14 -7t-14.5 4.5t-7 13.5q-8 101 -9 108q-2 40 0 64q1 15 4 25q4 17 15 23 q7 5 24 6q9 1 28 2q40 2 46 3q57 15 94.5 65.5t29 107.5t-52.5 81q-39 23 -94 14q-55 -8 -93 -42t-38 -79q0 -8 -6 -14t-14 -6t-14 6t-6 14zM179 35q0 -8 -6 -14t-14 -6t-14 6t-6 14t6 14t14 6t14 -6t6 -14z" />
<glyph unicode="@" horiz-adv-x="809" d="M526 403q0 64 -29 86q-25 19 -67 5q-44 -15 -83 -60t-50 -101q-5 -23 -0.5 -51.5t17.5 -49.5q28 -45 79 -29q39 13 73 50t55 83q1 13 3 27t5 30q-3 4 -3 10zM593 513q-3 -16 -14 -71q-12 -58 -15 -85q-2 -11 -3 -22q0 -4 -1 -9q-8 -75 10 -106q4 -7 15 -14t20 -9 q67 -15 115 92q20 45 30.5 96.5t8.5 84.5q-4 64 -41 115q-17 23 -27 35t-26 26t-33 20q-59 21 -125.5 13t-134.5 -41q-67 -33 -119.5 -81t-77.5 -101q-29 -61 -29 -141q0 -110 56 -183q56 -71 147 -100q86 -27 186 -6q101 21 178 86q6 6 14.5 5t14 -7t4.5 -14.5t-7 -13.5 q-85 -73 -195.5 -96t-206.5 8q-103 31 -167 114t-64 207q0 89 33 159q28 59 85.5 112t129.5 88q75 36 148 45t144 -15q23 -9 44.5 -27t31.5 -31l28 -37q45 -61 49 -137q2 -38 -9 -94q-11 -55 -33 -105q-26 -59 -67 -93q-40 -35 -93 -23q-17 4 -35 16t-26 27q-13 22 -17 55 q-51 -70 -114 -90q-41 -13 -73 1q-33 13 -52 45q-17 28 -23 64t0 66q13 67 59 119q47 53 102 72q61 21 103 -11q16 -12 27 -32l5 30q1 8 8 13t15 4t13 -8t4 -15z" />
<glyph unicode="A" d="M474 174l-32 78l-141 374l-174 -452h347zM322 685l158 -419l30 -74l39 -98q14 -39 26 -77q3 -8 -1 -15.5t-12 -10t-15.5 1.5t-9.5 12q-17 54 -47 129h-378v2l-49 -128q-3 -8 -10.5 -11.5t-15.5 -0.5t-11.5 10.5t-0.5 15.5l116 298q93 238 140 368q3 8 10.5 11.5t15.5 0.5 q5 -2 9 -6t6 -9z" />
<glyph unicode="B" horiz-adv-x="514" d="M128 365q-28 -3 -47 -3q1 -157 -3 -316q73 -16 159.5 -6.5t146.5 47.5q49 31 67.5 69.5t10.5 77.5t-41 73t-84 53q-45 17 -126 12q-37 -7 -83 -7zM206 412l21 4q97 25 126 75q24 41 -5 85q-20 29 -58 49.5t-93.5 27t-121.5 -11.5q4 -116 5 -235q25 -1 46 -1l11 1 q59 5 69 6zM52 676q76 23 141 17t113.5 -31t74.5 -64q43 -64 7 -127q-22 -38 -71 -64q18 -3 34 -9q60 -23 99.5 -64t50.5 -91q11 -53 -13 -103t-82 -87q-49 -30 -112 -44t-121 -12.5t-117 12.5q-7 2 -11 7q-7 6 -7 15q7 317 -4 624q0 8 5 14t12 7h1z" />
<glyph unicode="C" horiz-adv-x="560" d="M504 568q-25 57 -76 85q-52 28 -112 21.5t-110 -45.5q-86 -67 -119.5 -170.5t-8.5 -214.5q22 -103 90 -160t147 -56t138.5 61.5t68.5 174.5q1 8 7 13.5t14.5 4.5t14 -7t4.5 -15q-10 -128 -80.5 -199t-166.5 -73q-94 -1 -172.5 65t-104.5 183q-26 121 11 236 q37 113 133 189q57 45 128 53q72 9 136 -25t94 -105q4 -8 0.5 -15.5t-11 -11t-15 0t-10.5 10.5z" />
<glyph unicode="D" horiz-adv-x="536" d="M80 655q0 -102 1.5 -306.5t1.5 -306.5q99 3 178 30.5t127 71t73.5 96t25.5 109.5q0 56 -25 109t-73.5 96.5t-128.5 71t-180 29.5zM66 695q110 0 199.5 -29t145.5 -78t86 -110.5t30 -129.5q0 -67 -30.5 -128t-86.5 -110t-144 -78t-197 -30q-3 -1 -6 -1q-8 0 -14 6t-6 14 q0 109 -1.5 327t-1.5 327q0 8 6 14t14 6h3h3z" />
<glyph unicode="E" horiz-adv-x="494" d="M47 693q72 0 216.5 -1t216.5 -1q8 0 14 -6t6 -14t-6 -14t-14 -6q-72 0 -209.5 1t-201.5 1q3 -93 4 -188q64 0 197 -1t201 -1q8 0 14 -6t6 -14t-6 -14t-14 -6q-68 0 -200.5 1t-196.5 1q2 -189 -2 -378q66 0 204.5 -1t210.5 -1q8 0 14 -6t6 -14t-6 -14t-14 -6 q-72 0 -216.5 1t-216.5 1q-16 0 -19 15q-3 5 -3 10q7 319 -4 634v1q-1 3 -1 6q0 8 6 14t14 6z" />
<glyph unicode="F" horiz-adv-x="513" d="M50 693q72 0 216.5 -1t216.5 -1q8 0 14 -6t6 -14t-6 -14t-14 -6q-72 0 -209.5 1t-201.5 1q3 -93 4 -188q64 0 197 -1t201 -1q8 0 14 -6t6 -14t-6 -14t-14 -6q-68 0 -200.5 1t-196.5 1q2 -197 -2 -393q0 -9 -6 -14.5t-14.5 -5.5t-14 6t-5.5 14q7 319 -4 634v1q-1 3 -1 6 q0 8 6 14t14 6z" />
<glyph unicode="G" horiz-adv-x="595" d="M505 537q-11 44 -41.5 76.5t-68.5 46.5t-81 8t-77 -35q-84 -71 -123 -181q-40 -108 -24 -221q12 -88 80 -144t156 -64q83 -7 148 34t84 126q-17 -2 -159.5 -0.5t-159.5 1.5q-8 0 -14 6t-6 14t6 14t14 6l170 -2q170 -1 170 2q10 0 16 -7q8 -7 7 -18q-11 -77 -54.5 -129 t-101.5 -72t-123 -14q-100 8 -179 72.5t-94 168.5q-17 122 26 241q43 120 135 197q44 37 98 45t100.5 -10t83.5 -58t50 -93q2 -8 -2 -15t-12 -9t-15 2t-9 12z" />
<glyph unicode="H" horiz-adv-x="523" d="M509 682q3 -100 4 -204.5t0 -256.5t-1 -204q0 -8 -6 -14t-14 -6t-14 6t-6 14q0 57 0.5 196.5t0.5 215.5q-63 0 -193.5 1t-197.5 1v-413q0 -8 -6 -14t-14 -6t-14 6t-6 14q0 38 0.5 158t0 177.5t-1.5 151.5t-4 171q0 9 5.5 15t14 6t14.5 -5.5t6 -13.5q3 -95 5 -207 q66 0 196.5 -1t194.5 -1q-1 116 -4 211q0 9 5.5 15t14 6t14.5 -5.5t6 -13.5z" />
<glyph unicode="I" horiz-adv-x="102" d="M66 683q11 -328 4 -663q0 -9 -6 -14.5t-14.5 -5.5t-14 6t-5.5 14q7 335 -4 661q0 9 5.5 15t14 6t14.5 -5.5t6 -13.5z" />
<glyph unicode="J" horiz-adv-x="381" d="M367 686q11 -253 3 -540q0 -2 -1 -5q-6 -71 -55 -115q-48 -44 -114 -51q-69 -8 -129 28t-78 109q-2 8 2 15t12 9t15 -2t9 -12q15 -57 61.5 -85t103.5 -22t95.5 44t38.5 101v4q7 276 -3 520q0 8 5.5 14.5t13.5 6.5t14.5 -5.5t6.5 -13.5z" />
<glyph unicode="K" horiz-adv-x="537" d="M135 382q0 -62 -0.5 -184.5t-0.5 -182.5q0 -8 -6 -14t-14 -6t-14 6t-6 14q0 53 1 203t0 253.5t-4 202.5q0 9 5.5 15t14 6t14.5 -5.5t6 -13.5q4 -106 4 -237l74 75l95 96l75 74q6 5 14.5 5t14 -6t5.5 -14.5t-6 -14.5q-60 -56 -202 -201l147 -192q109 -142 171 -229 q5 -7 3.5 -15t-8 -13t-14.5 -3.5t-13 7.5l-171 228l-143 188z" />
<glyph unicode="L" horiz-adv-x="507" d="M73 22q0 109 1 326t1 326q0 8 6 14t14 6t14 -6t6 -14q0 -109 -1 -321t-1 -315q57 0 179 1.5t185 1.5q8 0 14 -6t6 -14t-6 -14t-14 -6q-64 0 -191 -1.5t-191 -1.5q-14 0 -19 13q-3 5 -3 11z" />
<glyph unicode="M" horiz-adv-x="705" d="M80 20q0 109 1.5 327t1.5 327q0 5 3 10q1 4 5 7q6 5 14 5t14 -7q125 -137 251 -291l288 290q6 6 14.5 6t13.5 -6q1 -1 2 -1q7 -6 7 -16q0 -109 -1.5 -327t-1.5 -327q0 -8 -6 -14t-14 -6t-14 6t-6 14q0 108 1.5 313t1.5 298l-269 -270q-1 -3 -4 -6q-7 -5 -15 -4t-14 7 l-230 270q0 -91 -1.5 -294t-1.5 -311q0 -8 -6 -14t-14 -6t-14 6t-6 14z" />
<glyph unicode="N" horiz-adv-x="528" d="M43 16q0 109 1.5 327t1.5 327v4q-1 9 4 16t13.5 8t14.5 -4q45 -36 101 -76l92 -65l110 -75l96 -65q1 165 1 268q0 8 6 14t14 6t14 -6t6 -14q0 -110 -1.5 -330.5t-1.5 -330.5q0 -8 -6 -14t-14 -6t-14 6t-6 14q0 110 2 346q-3 1 -5 2l-95 64l-102 70l-92 64l-97 71 q0 -97 -1.5 -304.5t-1.5 -316.5q0 -8 -6 -14t-14 -6t-14 6t-6 14z" />
<glyph unicode="O" horiz-adv-x="612" d="M305 709q6 3 13 3q74 -6 132.5 -44.5t92.5 -96.5t49 -126t10 -137q-12 -152 -102 -243q-104 -104 -268 -75q-56 11 -99 41t-67 72t-35.5 94t-10 105.5t14.5 107.5q33 144 121 229q69 66 149 70zM366 661q-99 31 -182 -50q-80 -78 -110 -210q-17 -63 -13.5 -125.5 t21.5 -113t59 -86.5t99 -46q142 -26 231 63q81 80 91 218q6 78 -13 147q-19 71 -64.5 125.5t-110.5 76.5q-4 0 -8 1z" />
<glyph unicode="P" horiz-adv-x="447" d="M76 663q0 -102 -1 -350q91 -4 148 5q93 13 135 61q71 81 18 172q-24 40 -67 69.5t-93 39.5q-40 8 -140 3zM56 702q9 0 31 1.5t35 2t32.5 0.5t36.5 -1.5t33 -4.5q58 -12 108 -46.5t78 -82.5q20 -34 26 -69q6 -36 -5.5 -75t-42.5 -74q-52 -59 -159 -75q-61 -9 -154 -5 q-1 -152 -1 -251q0 -8 -6 -14t-14 -6t-14 6t-6 14q0 109 1 326t1 326q0 3 1 6v1q0 8 5.5 14.5t13.5 6.5z" />
<glyph unicode="Q" horiz-adv-x="619" d="M499 63q-103 -102 -266 -73q-56 11 -99 41t-67 72t-35.5 94t-10 105.5t14.5 107.5q33 144 121 229q69 66 149 70q6 3 13 3q74 -6 132.5 -44.5t92.5 -96.5t49 -126t10 -137q-10 -127 -77 -215l77 -67q6 -5 7 -13.5t-4.5 -14.5t-14 -7t-14.5 5zM367 661q-99 31 -182 -50 q-80 -78 -110 -210q-17 -63 -13.5 -125.5t21.5 -113t59 -86.5t99 -46q139 -26 228 59l-48 38q-7 5 -8 13.5t4 15t13.5 7.5t14.5 -4l50 -40q59 78 68 192q6 77 -13 147.5t-64.5 125t-110.5 76.5q-4 0 -8 1z" />
<glyph unicode="R" horiz-adv-x="435" d="M85 658q0 -98 -1 -356q86 5 144 24t94 69q33 48 12 118q-20 66 -70 106q-35 28 -83.5 38t-95.5 1zM43 22q0 109 1 326t1 326q0 8 5 13.5t12 6.5h2q53 15 116 4t108 -47q61 -48 84 -126q27 -89 -18 -152q-38 -56 -97 -79t-136 -30l93 -70l114 -88l90 -73q6 -5 7 -13.5 t-4.5 -14.5t-14 -7t-14.5 5l-95 77l-116 88l-97 74q-1 -129 -1 -220q0 -8 -6 -14t-14 -6t-14 6t-6 14z" />
<glyph unicode="S" horiz-adv-x="498" d="M441 555q2 45 -39 77.5t-105 39.5q-64 6 -114.5 -18t-63.5 -73q-16 -64 17 -94q23 -22 101 -47l9 -3q25 -7 38 -11.5t37.5 -14.5t39.5 -18.5t35 -23.5t33 -31t26 -38.5t20 -49.5q22 -76 8 -123q-19 -63 -74.5 -97t-125.5 -36q-67 -3 -129 22.5t-95 75.5q-5 7 -9 15 t-7 16.5t-5 15t-4 17.5l-3 16q-1 5 -2 16.5t-1.5 15t-1.5 16.5t-1 15q-1 8 4.5 14t14 7t14.5 -4.5t7 -14.5q0 -3 1 -9q2 -28 3.5 -43t7.5 -35.5t16 -35.5q26 -39 78 -61t111 -19q60 2 104 29t59 76q10 35 -8 101q-7 22 -18 41t-21.5 32.5t-29.5 26.5t-31 20t-36.5 16.5 t-35.5 13.5l-40 12q-87 27 -117 55q-49 47 -27 134q11 46 48 76t81 39.5t91 4.5t87 -23t67.5 -53.5t25.5 -81.5q0 -8 -6.5 -13.5t-14.5 -5.5t-13.5 6.5t-5.5 14.5z" />
<glyph unicode="T" horiz-adv-x="608" d="M333 651q0 -102 -1 -313.5t-1 -320.5q0 -8 -6 -14t-14 -6t-14 6t-6 14q0 109 1 320.5t1 313.5h-241q-8 0 -14 6t-6 14t6 14t14 6h526q8 0 14 -6t6 -14t-6 -14t-14 -6h-245z" />
<glyph unicode="U" horiz-adv-x="513" d="M102 683q0 -36 -7 -154q-7 -115 -5 -175q3 -206 80 -287q31 -33 88 -41q59 -9 101 23q38 30 65 95q24 59 34 162.5t8 198t-11 174.5q-1 8 4.5 14.5t13.5 7.5t14.5 -4.5t7.5 -13.5q9 -81 11 -177t-8.5 -205t-37.5 -173q-30 -74 -76 -110q-56 -44 -132 -32q-70 11 -110 53 q-89 93 -92 315q-2 62 5 177q7 117 7 152q0 8 6 14t14 6t14 -6t6 -14z" />
<glyph unicode="V" horiz-adv-x="563" d="M299 15q-47 114 -128 334t-123 321q-3 8 0.5 15.5t11 11t15 0t11.5 -10.5q41 -103 116 -307t115 -304l252 610q4 7 11.5 10.5t15 0t11 -11t0.5 -15.5l-271 -652q0 -1 -1 -2q-3 -7 -10.5 -10.5t-15 0t-10.5 10.5z" />
<glyph unicode="W" horiz-adv-x="800" d="M213 17l-43 170l-41 158l-48 173q-30 107 -44 161q-2 8 2 15t12 9t15 -2t9 -12l51 -185l65 -236q25 -95 47 -187q102 245 157 351q1 12 12 16q10 6 19 1q12 -6 11 -19l154 -359q52 155 193 621q2 8 9.5 12t15.5 1.5t12 -10t1 -15.5q-149 -493 -208 -665q-1 -1 -1 -2 q-1 -12 -12 -16q-8 -4 -15.5 -0.5t-10.5 10.5l-161 374q-21 -42 -44 -95l-38 -85l-42 -101q-29 -69 -38 -89q-3 -7 -10.5 -10.5t-15.5 0.5q-6 2 -10 8q-2 4 -3 8z" />
<glyph unicode="X" horiz-adv-x="563" d="M283 370l-97 130q-81 110 -122 171q-4 7 -2.5 15t8.5 12.5t15 3t13 -8.5q40 -60 121 -169l92 -125q143 192 207 292q5 7 13 8.5t15 -3t8.5 -12.5t-2.5 -15q-65 -100 -218 -307l4 -4l214 -329q4 -7 2.5 -15t-8.5 -12.5t-15 -3t-13 8.5l-209 322q-148 -199 -222 -324 q-4 -7 -12 -9t-15 2t-9 12t2 15q76 128 230 337l4 4q-3 2 -4 4z" />
<glyph unicode="Y" horiz-adv-x="422" d="M85 24q17 41 58 117l19 36l24 41q10 19 18 36l47 90q-41 58 -111 170l-102 158q-4 7 -2.5 15t8.5 12.5t15 3t13 -8.5l97 -152q66 -104 103 -158l160 309q4 7 12 10t15 -1t10 -12t-1 -15l-228 -439l-20 -36l-22 -42l-20 -36q-37 -67 -55 -114q-4 -7 -11.5 -10.5t-15 0 t-11 11t-0.5 15.5z" />
<glyph unicode="Z" horiz-adv-x="597" d="M91 695h374q8 0 14 -6t6 -14q0 -3 -1 -6q0 -7 -3 -13q-66 -98 -192 -304t-194 -308q73 0 231 0.5t242 0.5q8 0 14 -6t6 -14t-6 -14t-14 -6q-84 0 -252.5 -0.5t-252.5 -0.5q-3 0 -6 1q-6 0 -10 3q-7 5 -8.5 13t2.5 15q75 110 204 320l187 299h-341q-8 0 -14 6t-6 14t6 14 t14 6z" />
<glyph unicode="[" horiz-adv-x="210" d="M74 652q27 1 97 1q8 0 14 -6t6 -14t-6 -14t-14 -6h-75q3 -32 1 -153.5t-2 -153.5q0 -341 -3 -428q7 0 39 0.5t49 0.5q8 0 14 -6t6 -14t-6 -14t-14 -6q-19 0 -55.5 -0.5t-55.5 -0.5q-8 0 -14 6t-6 14q0 5 2 9q4 99 4 439q0 27 2 158.5t-2 158.5v5v3q0 9 5.5 15t13.5 6z " />
<glyph unicode="\" horiz-adv-x="290" d="M245 26l-85 200l-95 240l-79 203q-3 7 0.5 14.5t11 11t15 0t11.5 -11.5l79 -201l94 -240q42 -106 84 -200q4 -7 1 -15t-10.5 -11.5t-15.5 -0.5t-11 11z" />
<glyph unicode="]" horiz-adv-x="216" d="M89 651q27 1 97 1q8 0 14 -6t6 -14q0 -4 -2 -8q4 -29 2 -158t-2 -158q3 -295 -4 -446v-1v-2q0 -8 -6 -14t-14 -6q-19 0 -55.5 -0.5t-55.5 -0.5q-8 0 -14 6t-6 14t6 14t14 6q18 0 50 0.5t42 0.5q3 86 3 429q0 32 2 152t-1 152q-47 0 -74 -1q-9 0 -15 5.5t-6 14t5.5 14.5 t13.5 6z" />
<glyph unicode="^" horiz-adv-x="423" d="M269 660q21 -61 71 -172q55 -122 75 -174q3 -8 -0.5 -15.5t-11.5 -10.5t-15.5 0.5t-10.5 11.5q-19 50 -74 171q-36 82 -56 132l-39 -95l-43 -110l-37 -95q-4 -8 -11.5 -11.5t-15 0t-11 11t-0.5 14.5q14 33 42 107l51 130q23 55 46 105q2 4 5 7q4 4 9 6q8 3 15.5 -1 t10.5 -11z" />
<glyph unicode="_" horiz-adv-x="526" d="M-17 -83q199 -10 512 3q8 0 14.5 -5.5t6.5 -13.5t-5.5 -14.5t-13.5 -6.5q-315 -13 -516 -3q-8 0 -13.5 6.5t-5.5 14.5t6.5 13.5t14.5 5.5z" />
<glyph unicode="`" horiz-adv-x="189" d="M79 729l97 -124q5 -6 4 -14.5t-7.5 -13.5t-15 -4t-13.5 8l-97 122q-5 7 -4 15t7.5 13.5t14.5 4.5t14 -7z" />
<glyph unicode="a" horiz-adv-x="387" d="M345 215q-36 52 -111 60q-85 10 -129 -39q-38 -42 -31 -105q7 -61 52 -88q53 -32 133 5q50 24 87 64q1 57 -1 103zM57 401q30 43 64.5 69.5t81.5 30.5q42 3 73.5 -12.5t51 -46t31.5 -65t18 -76.5q3 -22 5.5 -46t3 -48.5t0.5 -44.5t-0.5 -46t-1 -39.5t-2 -37.5t-1.5 -29 q0 -8 -6.5 -13.5t-14.5 -5.5t-13.5 6.5t-5.5 14.5q0 7 1 21.5t1 21.5q-30 -26 -68 -43q-98 -46 -169 -4q-31 19 -49.5 50.5t-22.5 68.5q-9 80 42 136q57 64 162 52q60 -7 102 -38q-1 9 -3 18q-12 83 -43.5 126.5t-86.5 39.5q-36 -3 -63.5 -24t-54.5 -60q-4 -6 -12.5 -7.5 t-15 3t-8 13t3.5 15.5z" />
<glyph unicode="b" horiz-adv-x="452" d="M94 54v-38q0 -8 -6 -14t-14 -6t-14 6t-6 14v114v6q0 54 1.5 245.5t1.5 295.5q0 8 6 14t14 6t14 -6t6 -14q0 -104 -1 -270q35 60 82 84q73 36 147 -17q67 -48 100 -142t6 -189q-19 -68 -70.5 -107.5t-114.5 -43.5q-43 -3 -83 13t-69 49zM95 305q0 -104 -1 -170 q18 -54 59 -80t91 -23t91.5 35t57.5 86q23 83 -6 166t-85 122q-55 39 -106 14q-63 -31 -101 -150z" />
<glyph unicode="c" horiz-adv-x="411" d="M360 345q-11 29 -35 55t-53 41q-67 34 -119 -6q-54 -41 -70 -142q-16 -93 10 -167q17 -49 57 -73q41 -24 89 -20q49 4 87.5 33t52.5 76q2 8 9.5 12.5t15 2t12 -10t1.5 -14.5q-17 -61 -66 -97.5t-109 -41.5q-60 -4 -112 26t-75 93q-29 83 -12 188q20 116 86 167 q36 28 81 29t80 -19q36 -18 65 -50t43 -68q3 -8 -0.5 -15.5t-11.5 -10.5t-15.5 0.5t-10.5 11.5z" />
<glyph unicode="d" horiz-adv-x="431" d="M396 394q1 173 1 278q0 8 6 14t14 6t14 -6t6 -14q0 -110 -1 -329.5t-1 -329.5q0 -8 -6 -14t-14 -6t-14 6t-6 14v51q-40 -45 -97.5 -60t-111 -0.5t-96 58.5t-54.5 110q-16 94 23.5 180t108.5 124q76 41 147 3q47 -26 81 -85zM394 299q-36 111 -98 145q-52 28 -109 -4 q-58 -31 -92 -105t-19 -157q8 -48 37.5 -82.5t68.5 -47.5t80 -10t77.5 29.5t55.5 71.5q0 62 1 156z" />
<glyph unicode="e" horiz-adv-x="463" d="M92 260l325 -2q-10 102 -56 151.5t-104 46.5q-57 -4 -104.5 -55t-60.5 -141zM432 219v-1l-344 2q-2 -79 36 -127.5t96 -60.5q60 -12 117 18q56 29 85 96q3 7 10.5 10.5t15 0t11 -11t-0.5 -15.5q-33 -80 -103 -116t-143 -21q-76 15 -123 79t-40 162q8 115 67 186t138 76 q82 5 140 -63t64 -194q0 -8 -5.5 -14.5t-13.5 -6.5q-4 0 -7 1z" />
<glyph unicode="f" horiz-adv-x="255" d="M215 652q-40 22 -62 10q-18 -11 -28 -49q-7 -29 -9 -71v-4v-35h40h39q8 0 14 -6t6 -14t-6 -14t-14 -6h-38h-41q0 -53 -1.5 -202.5t-1.5 -231.5q0 -8 -6 -14t-14 -6t-14 6t-6 14q0 80 1.5 227t1.5 185q-1 2 -1 5v17q-29 1 -53 2q-8 0 -13.5 6.5t-5.5 14.5t6.5 13.5 t14.5 5.5q23 -1 51 -2q0 76 11 120q14 55 48 74q40 23 101 -11q7 -4 9.5 -11.5t-2 -15t-12 -10t-15.5 2.5z" />
<glyph unicode="g" horiz-adv-x="463" d="M414 237q-5 113 -52.5 167.5t-108.5 51.5q-62 -4 -111.5 -63t-56.5 -161q-6 -85 32.5 -136.5t98.5 -63.5q58 -12 115 16q56 28 84 92v15q1 36 -1 80v2zM445 452q0 -38 6 -141q2 -44 3 -72v-1q2 -46 1 -84v-11q2 -5 0 -11q-5 -175 -68 -266q-31 -46 -83 -67.5t-103.5 -16 t-96.5 37.5t-64 85q-3 8 1 15.5t11.5 10.5t15 -1t10.5 -11q14 -41 50 -66.5t77 -30t82.5 12.5t67.5 53q43 63 55 172q-39 -44 -93 -61q-55 -17 -109 -6q-76 15 -123 79t-40 162q8 115 67 186t138 76q46 3 86.5 -19t69.5 -66q-1 23 -1 41q0 8 6 14t14 6t14 -6t6 -14z" />
<glyph unicode="h" horiz-adv-x="420" d="M61 18q0 110 1 329.5t1 329.5q0 8 6 14t14 6t14 -6t6 -14q0 -100 -1 -253q44 57 99 72q45 14 87.5 -5.5t76.5 -72.5q41 -64 45 -201q3 -85 -9 -203q-1 -8 -7.5 -13.5t-14.5 -4.5t-13.5 7.5t-4.5 14.5q12 116 9 198q-4 124 -39 180q-51 82 -119 62q-31 -9 -59.5 -37 t-47.5 -69q-1 -2 -3 -4q-1 -220 -1 -330q0 -8 -6 -14t-14 -6t-14 6t-6 14z" />
<glyph unicode="i" horiz-adv-x="122" d="M108 479q0 -77 -2.5 -229.5t-2.5 -229.5q0 -8 -6 -14t-14 -6t-14 6t-6 14q0 77 2.5 229.5t2.5 229.5q0 8 6 14t14 6t14 -6t6 -14zM112 619q0 -8 -6 -14t-14 -6t-14 6t-6 14t6 14t14 6t14 -6t6 -14z" />
<glyph unicode="j" horiz-adv-x="200" d="M182 -79q-1 -9 -1 -17q0 -15 -1 -24q-2 -15 -4 -21q-9 -22 -29 -37.5t-44 -21.5q-26 -6 -50.5 1.5t-38.5 32.5q-7 12 -11.5 26.5t-5 31.5t-0.5 28t1 29t1 23q0 8 6 13.5t14.5 5.5t14 -6t5.5 -15q0 -7 -1 -25t-1 -27t0.5 -22t3 -23t7.5 -19q13 -23 45 -15q16 4 28.5 13.5 t16.5 20.5v1q1 1 1 3.5t1 5.5q1 9 1 23q0 7 0.5 15t0.5 15v7v1q0 88 1 272t1 279q0 8 6 14t14 6t14 -6t6 -14q0 -95 -1 -279t-1 -273v-18v-4zM190 648q0 -8 -6 -14t-14 -6t-14 6t-6 14t6 14t14 6t14 -6t6 -14z" />
<glyph unicode="k" horiz-adv-x="462" d="M110 15q0 110 1 329.5t1 329.5q0 8 6 14t14 6t14 -6t6 -14q0 -108 -1 -361q83 80 191 196q6 6 14.5 6t14.5 -5.5t6 -14t-5 -14.5l-210 -213q50 -43 146 -119t137 -111q6 -5 7 -13.5t-4.5 -14.5t-14 -7t-14.5 5l-269 218v-211q0 -8 -6 -14t-14 -6t-14 6t-6 14z" />
<glyph unicode="l" horiz-adv-x="112" d="M60 23q0 110 1 329.5t1 329.5q0 8 6 14t14 6t14 -6t6 -14q0 -110 -1 -329.5t-1 -329.5q0 -8 -6 -14t-14 -6t-14 6t-6 14z" />
<glyph unicode="m" horiz-adv-x="716" d="M62 23q0 69 1.5 207.5t1.5 207.5q0 8 6 14t14 6t14 -6t6 -14v-18q29 35 68.5 55.5t79.5 21.5q44 1 79.5 -21.5t54.5 -65.5q24 32 62 56q38 23 78 30q54 10 95 -13q46 -26 62 -87q15 -57 20 -132q4 -77 2.5 -118.5t-5.5 -131.5q0 -8 -6.5 -13.5t-14.5 -5.5t-13.5 6.5 t-5.5 14.5q4 89 5.5 131t-3 114t-17.5 125q-12 45 -43 62q-29 16 -69 9q-39 -8 -75.5 -33.5t-52.5 -58.5q-1 -2 -2 -3q0 -34 -1.5 -106.5t-1.5 -110.5q0 -8 -6 -14t-14 -6t-14 6t-6 14q0 36 1.5 103t1.5 87q-1 2 -1 4q-6 61 -36.5 90t-72.5 28q-43 -1 -84 -30t-62 -78 q-1 -3 -3 -6q-1 -14 -2 -135.5t-1 -184.5q0 -8 -6 -14t-14 -6t-14 6t-6 14z" />
<glyph unicode="n" horiz-adv-x="441" d="M116 351q-3 -307 -3 -332q0 -8 -6 -14t-14 -6t-14 6t-6 14q0 25 3 332v7q1 69 1 123q0 8 6 14t14 6t14 -6t6 -14v-50q38 45 89 64q32 10 61.5 10t59.5 -17t52 -50q44 -67 51 -208q3 -16 1 -112.5t-2 -98.5q0 -8 -6 -14t-14 -6t-14 6t-6 14q0 2 2 97t-1 112 q-6 130 -45 188q-47 70 -125 42q-34 -13 -62.5 -42t-41.5 -65z" />
<glyph unicode="o" horiz-adv-x="463" d="M262 468q-72 -7 -119 -64.5t-56 -137.5q-11 -87 28 -153t121 -74q79 -8 129 48.5t56 143.5q5 83 -36 150.5t-123 86.5zM312 497q79 -32 118 -107t33 -159q-2 -47 -18.5 -90t-44.5 -76.5t-71 -51t-94 -12.5q-69 7 -115 50t-62 101t-8 121q10 82 57 148q48 66 125 84 q7 11 19 9q8 -2 17 -3q13 1 26 0q14 -1 18 -14z" />
<glyph unicode="p" horiz-adv-x="465" d="M106 296q0 -56 -1 -158q1 -2 1 -3q17 -56 58.5 -83t92 -24t92 35t57.5 86q23 83 -6 166t-85 122q-55 39 -106 14q-63 -31 -101 -150q-1 -3 -2 -5zM64 -179q0 102 1 307t1 307q0 8 6 14t14 6t14 -6t6 -14v-37q36 64 85 89q73 36 147 -17q67 -48 100 -142t6 -189 q-19 -68 -70.5 -107.5t-114.5 -43.5q-44 -3 -85 14q-41 16 -69 51q-1 -139 -1 -232q0 -8 -6 -14t-14 -6t-14 6t-6 14z" />
<glyph unicode="q" horiz-adv-x="430" d="M396 395v46q0 8 6 14t14 6t14 -6t6 -14q0 -104 -1 -312t-1 -312q0 -8 -6 -14t-14 -6t-14 6t-6 14q0 97 1 247q-40 -45 -97.5 -60t-111 -0.5t-96 59t-54.5 109.5q-16 94 23.5 180t108.5 124q76 41 147 3q47 -26 81 -84zM394 299q-36 111 -98 145q-52 28 -109 -4 q-58 -31 -92 -105t-19 -157q8 -48 37.5 -82.5t68.5 -47.5t79.5 -10t77.5 29.5t56 71.5q1 101 1 156z" />
<glyph unicode="r" horiz-adv-x="305" d="M62 19q0 76 1 229t1 229q0 8 6 14t14 6t14 -6t6 -14v-75q85 74 166 96q8 2 15 -2t9 -12t-2 -15t-12 -9q-47 -13 -88.5 -40.5t-87.5 -71.5q-2 -304 -2 -329q0 -8 -6 -14t-14 -6t-14 6t-6 14z" />
<glyph unicode="s" horiz-adv-x="351" d="M298 377q-10 39 -42.5 60.5t-70.5 21.5q-38 -1 -63 -23.5t-24 -63.5q0 -24 25 -40q11 -7 71 -32q27 -11 45 -20.5t40.5 -26.5t37 -42t21.5 -57q8 -44 0 -71q-13 -44 -46 -68q-34 -24 -77 -28q-39 -4 -79.5 9t-68.5 39q-24 22 -33 62q-2 13 -4 32q-1 3 -1.5 13t-1.5 15 q-1 8 4 14.5t13.5 7.5t15 -4t7.5 -14q0 -5 1 -15t2 -13q1 -17 4 -27q5 -29 19 -41q23 -20 55 -30.5t64 -7.5q69 6 88 68q5 17 -2 51q-9 47 -38.5 71.5t-80.5 44.5q-61 25 -78 36q-42 28 -43 74q-1 59 36.5 92.5t89.5 34.5q51 1 95 -29q44 -29 57 -83q2 -8 -2 -15t-12 -9 t-15 2t-9 12z" />
<glyph unicode="t" horiz-adv-x="264" d="M179 498q0 -26 -2.5 -205t-2.5 -273q0 -8 -6 -14t-14 -6t-14 6t-6 14q0 94 2.5 273t2.5 206q-28 0 -57 1q-8 0 -13.5 6.5t-5.5 14.5t6.5 13.5t14.5 5.5l56 -2v97q0 8 6 14t14 6t14 -6t6 -14v-97l53 2q8 0 14.5 -5.5t6.5 -13.5t-5.5 -14.5t-13.5 -6.5z" />
<glyph unicode="u" horiz-adv-x="441" d="M121 471q-13 -101 -14 -196q0 -132 28 -181q30 -55 69 -62q33 -6 73 22q37 26 68 71.5t44 88.5q2 183 2 256q0 8 6 14t14 6t14 -6t6 -14q0 -75 -2 -245q3 -6 1 -13l-1 -4q-1 -122 -1 -195q0 -8 -6 -14t-14 -6t-14 6t-6 14v107q-39 -63 -87 -98q-54 -39 -104 -30 q-58 11 -98 82q-32 59 -32 201q1 98 14 202q1 8 7.5 13t15 4t13.5 -7.5t4 -15.5z" />
<glyph unicode="v" horiz-adv-x="419" d="M202 16l-71 223q-47 153 -74 233q-3 7 1 14.5t11.5 10.5t15 -1t10.5 -12q26 -75 70 -216l56 -183l72 186l80 209q3 8 10.5 11.5t15.5 0.5t11.5 -10.5t0.5 -15.5l-86 -224q-58 -147 -84 -219q1 -15 -14 -20q-8 -3 -15 1t-10 12z" />
<glyph unicode="w" horiz-adv-x="656" d="M158 14l-150 452q-3 8 1 15.5t11.5 10.5t15 -1t10.5 -11l136 -410l54 103q45 87 69 143q3 7 10 10q7 4 15 2t12 -9q30 -52 76 -144l54 -106q8 22 60.5 176t77.5 236q2 8 9.5 12t15.5 1.5t12 -10t1 -15.5q-26 -86 -79.5 -241.5t-71.5 -211.5q-5 -15 -20 -14q-12 0 -18 10 q-21 37 -76 145q-37 73 -57 109q-20 -45 -55 -112q-58 -111 -73 -142q-4 -8 -13 -10q-1 -1 -2 -1q-8 -3 -15 1t-10 12z" />
<glyph unicode="x" horiz-adv-x="426" d="M40 30q50 87 161 237l6 8q-80 125 -142 201q-6 7 -5 15t7.5 13.5t14.5 4.5t13 -7q62 -76 138 -192q84 115 129 188q4 7 12 9t15 -2t9 -12t-2 -15q-46 -76 -140 -204l4 -7q120 -189 154 -237q5 -7 3.5 -15.5t-8 -13t-15 -3t-12.5 7.5q-37 53 -152 233q-107 -145 -156 -229 q-4 -7 -12 -9t-15 2t-9 12t2 15z" />
<glyph unicode="y" horiz-adv-x="362" d="M206 143q91 278 110 340q2 8 9.5 12t15.5 1.5t12 -10t1 -15.5q-21 -69 -97.5 -300t-110.5 -359q-2 -8 -9 -12t-15 -2t-12 9t-2 15q29 111 78 261q-43 113 -159 388q-4 8 -0.5 15.5t11 11t15 0t10.5 -10.5z" />
<glyph unicode="z" horiz-adv-x="409" d="M363 0q-56 0 -167 0.5t-166 0.5q-8 0 -14 6t-6 14v2q-1 7 4 13l326 421q-35 0 -126.5 0.5t-141.5 0.5q-8 0 -14 6t-6 14t6 14t14 6q51 0 154 -0.5t154 -0.5q8 0 14 -6t6 -14q0 -7 -5 -13q0 -2 -2 -4l-325 -419q41 0 141 -0.5t154 -0.5q8 0 14 -6t6 -14t-6 -14t-14 -6z " />
<glyph unicode="{" horiz-adv-x="294" d="M264 674q-46 3 -87 -43q-40 -43 -49 -96q-4 -23 -4 -64q-1 -48 -3 -68q-10 -85 -70 -135q-5 -4 -12 -9q63 -38 79 -93q8 -28 11 -54.5t2 -61t-1 -40.5q1 -35 12.5 -64.5t43.5 -63.5q30 -31 79 -44q8 -2 12 -9t2 -15t-9 -12t-15 -2q-59 15 -97 54q-39 40 -53 77t-15 79 q0 10 0.5 42.5t-1.5 54.5t-9 47q-13 43 -69 76h-2l-2.5 1t-5.5 2q-20 6 -24 23q-1 4 0.5 8.5t2.5 6.5l2 2q1 2 3 3q1 1 2 1l1 1h1l1 1l3 1q5 3 10 5q15 7 22 13q48 41 56 109q2 19 3 65q0 44 4 69q12 65 59 117q55 60 119 56q9 -1 14.5 -7t4.5 -14.5t-7 -14t-14 -4.5z" />
<glyph unicode="|" horiz-adv-x="126" d="M113 675q0 -109 1.5 -328t1.5 -328q0 -8 -6 -14t-14 -6t-14 6t-6 14q0 109 -1.5 328t-1.5 328q0 8 6 14t14 6t14 -6t6 -14z" />
<glyph unicode="}" horiz-adv-x="325" d="M23 713q56 4 102.5 -38.5t68.5 -97.5q13 -34 14 -89q1 -77 2 -82q8 -69 56 -109q7 -5 22 -13l11 -4q3 -2 4 -2q2 -1 3 -2q2 -2 4 -3q7 -8 5 -18q-4 -17 -24 -23q-4 -2 -8 -3h-2q-57 -33 -70 -76q-11 -39 -13 -99q-3 -83 -5 -98q-9 -55 -41 -91q-38 -41 -116 -66 q-8 -3 -15.5 1t-10 12t1.5 15.5t12 9.5q68 22 98 55q25 27 31 70q3 15 5 93q2 66 15 110q16 54 79 93q-7 4 -12 9q-60 49 -70 135q0 3 -2 85q-1 48 -12 76q-18 46 -55 79.5t-76 30.5q-8 0 -14 5t-6.5 13.5t4.5 14.5t14 7z" />
<glyph unicode="~" horiz-adv-x="561" d="M6 171q8 52 60 99q40 36 85 37q34 0 77 -21q13 -7 43 -24.5t49 -25t39 -8.5t39 4.5t32 13t31 25t26 27.5l29 36q6 6 14 7t14.5 -4.5t7.5 -13.5t-4 -15q-3 -2 -7 -8q-22 -27 -35.5 -41.5t-38 -35t-51.5 -29t-59 -6.5q-25 1 -49.5 11t-58.5 29t-39 22q-34 17 -59 17 q-29 -1 -59 -27q-40 -37 -46 -75q-1 -8 -8 -13t-15 -4t-13 8t-4 15z" />
<glyph unicode="&#xa1;" horiz-adv-x="179" d="M122 -179q0 10 6 247q3 148 -5 243q-1 9 4.5 15t14 7t14.5 -4.5t7 -13.5q8 -98 5 -248q-6 -237 -6 -246q0 -8 -6 -14t-14 -6t-14 6t-6 14zM168 457q0 -8 -6 -14t-14 -6t-14 6t-6 14t6 14t14 6t14 -6t6 -14z" />
<glyph unicode="&#xa2;" horiz-adv-x="436" d="M203 41q12 132 24 416q-26 -4 -49 -21q-54 -41 -70 -142q-16 -94 10 -167q23 -65 85 -86zM385 346q-11 29 -35 55t-53 41q-15 8 -30 12q-12 -286 -25 -420q11 -1 22 0q49 4 87 33q39 29 53 76q2 8 9.5 12.5t15 2t12 -10t1.5 -14.5q-17 -61 -66 -97.5t-109 -41.5 q-14 -1 -28 0l-10 -84q-1 -8 -7.5 -13t-15 -4t-13.5 7.5t-4 15.5l10 85q-88 24 -119 112q-29 83 -12 188q20 116 86 167q34 26 75 29l3 70q0 8 6.5 13.5t14.5 5.5t13.5 -6.5t5.5 -14.5l-3 -71q23 -4 46 -16q36 -18 65 -50t43 -68q3 -8 -0.5 -15.5t-11.5 -10.5t-15.5 0.5 t-10.5 11.5z" />
<glyph unicode="&#xa3;" horiz-adv-x="483" d="M431 514q11 50 -18.5 89.5t-84.5 57.5q-52 19 -105 7q-53 -13 -79 -55q-43 -69 -31 -182q5 -36 15 -84l24 1q82 4 130 12q8 1 14.5 -4t8 -13t-3.5 -14.5t-13 -8.5q-50 -8 -134 -12h-17q1 -5 8 -32l9 -39q18 -77 6 -133l-1 -1q31 7 75 3q19 -2 38.5 -9.5t44.5 -21.5 t29 -16q25 -11 42 -11q21 0 42 17q7 6 15 5t13.5 -7.5t4.5 -14.5t-7 -13q-32 -27 -68 -27q-26 -1 -59 15l-33 18q-22 12 -36.5 18t-29.5 7q-63 6 -88 -14q-1 -2 -1 -5q-1 -1 -1 -2q-3 -8 -6 -13q-10 -12 -25 -9q-7 2 -10 3q-6 3 -9 7q-7 8 -5 18q2 7 8 13l5 5q16 16 22 43 q11 48 -4 115l-20 79q-43 -2 -73 -5q-8 -1 -14.5 4.5t-7.5 13.5t4.5 14.5t13.5 7.5q29 3 68 5q-9 45 -13 81q-14 127 36 208q24 37 64.5 57t82 19.5t84.5 -12.5q65 -22 104.5 -73.5t25.5 -119.5q-2 -8 -9 -12.5t-15 -3t-12.5 8.5t-3.5 15z" />
<glyph unicode="&#xa4;" horiz-adv-x="450" d="M248 480q-46 0 -78 -27q-38 -33 -48 -92q-9 -59 16 -104.5t73 -51.5q56 -7 88 5q32 11 52.5 54.5t15.5 93.5q-4 48 -33 81.5t-86 40.5zM382 234q19 -22 51 -51q6 -5 7 -13.5t-4.5 -14.5t-14 -7t-14.5 5q-32 27 -50 49q-20 -21 -44 -30q-42 -15 -106 -7q-39 5 -68 28 q-37 -33 -65 -61q-6 -6 -14 -6t-14 6t-6 14t6 14q29 29 66 62q-42 61 -29 145q8 52 37 90q-32 30 -56 45q-7 5 -8.5 13t3 15t12.5 8.5t15 -2.5q27 -18 61 -50q28 22 64 30q5 5 13 5q14 0 27 -1q18 -1 37 -4q7 -2 11 -7q31 -11 53 -31l19 23q15 20 26 32q6 6 14.5 6 t14.5 -5.5t6 -14t-5 -14.5q-10 -10 -25 -28l-23 -30q24 -37 28 -85q6 -69 -26 -127z" />
<glyph unicode="&#xa5;" horiz-adv-x="524" d="M153 275q46 -2 106 -2l37 71l-39 58q-79 5 -85 5q-8 0 -14 6t-6 14t6 14t14 6q20 0 57 -3l-62 99q-54 85 -84 129q-4 7 -2.5 15t8.5 12.5t15 3t13 -8.5l97 -152q66 -104 103 -158l160 309q4 7 12 10t15 -1t10 -12t-1 -15l-115 -222h48q8 0 14 -6t6 -14t-6 -14t-14 -6 q-50 0 -68 2l-74 -142q90 1 104 1q8 0 14 -6t6 -14t-6 -14t-14 -6q-24 0 -67.5 -0.5t-57.5 -0.5l-60 -111q-39 -72 -55 -114q-4 -7 -11.5 -10.5t-15 0t-11 11t-0.5 15.5q18 44 58 117l50 92q-48 0 -87 2q-8 0 -13.5 6.5t-5.5 14.5t6.5 13.5t14.5 5.5z" />
<glyph unicode="&#xa6;" horiz-adv-x="126" d="M65 443q12 96 12 239q0 8 6 14t14 6t14 -6t6 -14q0 -146 -12 -243q-1 -9 -7.5 -14t-15 -4t-13.5 7.5t-4 14.5zM70 2l1 132q2 133 -1 133q0 8 5.5 14.5t13.5 6.5t14.5 -5.5t6.5 -13.5q2 -40 2 -84.5t-1 -98.5t-1 -84q0 -8 -6 -14t-14 -6t-14 6t-6 14z" />
<glyph unicode="&#xa7;" horiz-adv-x="456" d="M197 430q-49 -27 -79 -98q-24 -60 -9 -98q12 -29 57 -57q13 -8 47.5 -26.5t63 -37t49.5 -39.5q43 5 68 31t32 65q7 38 -4 80q-11 41 -36 72q-28 33 -93 63q-10 5 -29 13l-36 16q-17 8 -31 16zM371 567q-2 47 -33 72t-74 22t-74.5 -34.5t-32.5 -86.5q0 -24 10 -38 q9 -13 35 -29q14 -9 30.5 -17t41.5 -18.5t36 -16.5q73 -33 106 -73q32 -38 45 -88t5 -97q-9 -46 -37 -79.5t-75 -45.5q33 -53 27 -95q-9 -61 -53 -91.5t-100 -27.5q-53 4 -96 38t-51 90q-1 9 4 15.5t13.5 7.5t15 -4t7.5 -13q5 -41 36.5 -66t73.5 -27.5t73 19t37 65.5 q5 29 -24 72q-17 26 -42.5 45.5t-69.5 43t-60 33.5q-56 35 -73 76q-22 53 10 129q28 69 78 105q-16 12 -26 26q-18 25 -17 61q1 72 43.5 114.5t100.5 46.5t102.5 -31t47.5 -101q0 -8 -5.5 -14.5t-13.5 -6.5t-14.5 5.5t-6.5 13.5z" />
<glyph unicode="&#xa8;" horiz-adv-x="255" d="M93 643q0 -8 -6 -14t-14 -6t-14 6t-6 14t6 14t14 6t14 -6t6 -14zM245 646q0 -8 -6 -14t-14 -6t-14 6t-6 14t6 14t14 6t14 -6t6 -14z" />
<glyph unicode="&#xa9;" horiz-adv-x="682" d="M343 711q6 2 11 2q61 -5 112.5 -24.5t87.5 -49.5t63 -69.5t39.5 -83.5t17 -91t-4.5 -92q-12 -71 -48 -131.5t-93 -100.5q-129 -90 -312 -37q-70 20 -116 65t-64 102.5t-16 120.5t22 125q37 109 118 185.5t183 78.5zM451 437q-57 75 -117 67q-52 -8 -85 -70 q-22 -40 -24 -84t21 -83q24 -39 72 -57q39 -15 72 0q31 14 64 53q5 6 13 7t14.5 -4.5t7.5 -13.5t-5 -15q-83 -101 -180 -65q-48 18 -77 52.5t-36.5 74t-1.5 80t25 75.5t49 59.5t66 29.5q82 12 154 -82q5 -6 4 -14.5t-7.5 -13.5t-15 -4t-13.5 8zM411 662q-57 15 -108.5 3.5 t-94.5 -44.5t-76 -81t-52 -105.5t-20.5 -114t14.5 -106t55.5 -87.5t98.5 -55q164 -47 278 32q49 35 80.5 88.5t42.5 117.5q13 75 -4.5 145.5t-70 127.5t-133.5 79q-5 -2 -10 0z" />
<glyph unicode="&#xaa;" horiz-adv-x="264" d="M210 556q-29 11 -63.5 -0.5t-59.5 -37.5q-24 -24 -24 -42q0 -4 2 -7q5 -4 19 -6q31 -4 60.5 6.5t67.5 34.5v2q-1 28 -2 50zM50 669q46 50 104 58q44 6 68 -39q17 -30 24 -87q5 -39 6 -94q2 -63 2 -65q1 -9 -4.5 -15t-14 -7t-14.5 4.5t-7 13.5q0 7 -1 20q-73 -43 -135 -35 q-26 3 -40 17q-15 14 -15 36q0 34 35 70q28 29 68.5 45t79.5 8q-6 46 -19 70q-11 20 -27 18q-44 -6 -80 -46q-6 -6 -14 -6t-14.5 5.5t-6.5 13.5t5 15z" />
<glyph unicode="&#xab;" horiz-adv-x="415" d="M221 373q-53 -62 -107 -104q-2 -1 -5 -3q2 -4 6 -8q12 -12 34 -29l39 -29q24 -18 31 -24t7 -14t-5.5 -14.5t-13.5 -6.5t-14 5q-7 6 -28 22l-41 30q-24 19 -38 33q-20 21 -22 39q-2 19 18 28q6 2 7 3h1q50 39 101 98q5 6 13.5 7t14.5 -4.5t7 -14t-5 -14.5zM402 362 q-31 -37 -72 -65q-8 -6 -31 -20l-3 -2l4 -5q11 -13 30 -31q18 -17 60 -52q6 -5 7 -13.5t-4.5 -14.5t-14 -7t-14.5 5q-41 34 -61 53q-21 20 -33 34q-18 21 -20 36q0 4 1 7.5t2 5.5l1 1q1 2 3 3q1 1 3 2.5t5 3.5l13 8l30 18q36 26 64 59q5 6 13 7t14.5 -4.5t7.5 -13.5t-5 -15z " />
<glyph unicode="&#xac;" horiz-adv-x="497" d="M52 364q84 -2 122.5 -1.5t122.5 3t123 3.5q10 1 20 1h15h6h3q1 0 3 -1q5 -1 8 -4q5 -4 7 -10q0 -2 1 -5q0 -3 1 -8q1 -10 1 -26q1 -26 2 -73v-125q0 -8 -6 -14t-14 -6t-14 6t-6 14v125q-1 46 -2 72v15h-4q-9 0 -20 -1h-1q-39 -1 -123 -3.5t-123.5 -3t-123.5 1.5 q-8 0 -13.5 6.5t-5.5 14.5t6.5 13.5t14.5 5.5z" />
<glyph unicode="&#xae;" horiz-adv-x="682" d="M343 711q6 2 11 2q61 -5 112.5 -24.5t87.5 -49.5t63 -69.5t39.5 -83.5t17 -91t-4.5 -92q-12 -71 -48 -131.5t-93 -100.5q-129 -90 -312 -37q-70 20 -116 65t-64 102.5t-16 120.5t22 125q37 109 118 185.5t183 78.5zM235 487q5 -46 5 -104q3 3 10 5q66 14 109 35 q62 29 58 62q-2 15 -20 21q-20 8 -57 5q-58 -4 -105 -24zM411 662q-57 15 -108.5 3.5t-94.5 -44.5t-76 -81t-52 -105.5t-20.5 -114t14.5 -106t55.5 -87.5t98.5 -55q164 -47 278 32q49 35 80.5 88.5t42.5 117.5q13 75 -4.5 145.5t-70 127.5t-133.5 79q-5 -2 -10 0zM206 517 q19 11 56.5 21.5t74.5 12.5q45 4 74 -7q41 -15 46 -55q6 -55 -66 -95q33 -10 54.5 -30.5t30.5 -50t12 -53t3 -54.5q0 -8 -6 -14t-14 -6t-14 6t-6 14q0 30 -2.5 52t-10 43t-23 35t-38.5 21q-26 7 -84 -2q-10 -1 -21 -3l-14 -4q-5 -1 -18 -3q0 -16 -1 -63.5t-1 -73.5 q0 -8 -6 -14t-14 -6t-14 6t-6 14q0 28 1.5 88.5t1 104.5t-5.5 86q0 5 1 9q-2 14 10 21z" />
<glyph unicode="&#xaf;" horiz-adv-x="297" d="M0 653q40 -2 83.5 -2t100.5 0.5t83 0.5q8 0 14 -6t6 -14t-6 -14t-14 -6q-26 0 -83.5 -0.5t-101.5 -0.5t-84 2q-8 0 -13.5 6.5t-5.5 14.5t6.5 13.5t14.5 5.5z" />
<glyph unicode="&#xb0;" horiz-adv-x="317" d="M189 625q-9 0 -19 -1q-35 -5 -60 -37q-25 -30 -23.5 -72t31.5 -70q36 -29 68 -25t57.5 32.5t30 64t-17.5 65.5q-3 4 -8 8.5t-9 7.5t-12 7l-11 6l-13 7zM286 609l2 -3q22 -27 25.5 -61.5t-7.5 -65t-33 -54.5q-22 -25 -51 -37t-64 -6.5t-66 33.5q-30 27 -40 63.5t-2.5 70.5 t28.5 62q35 46 87 53q58 8 114 -39q8 -6 7 -16z" />
<glyph unicode="&#xb1;" horiz-adv-x="537" d="M251 279q-143 1 -220 1q-8 0 -14 6t-6 14t6 14t14 6q76 0 218 -1q-5 102 -5 161q0 8 6 14t14 6t14 -6t6 -14q0 -59 5 -162q129 -1 204 -1q8 0 14 -6t6 -14t-6 -14t-14 -6q-75 0 -202 1q4 -98 4 -156q0 -8 -6 -14t-14 -6t-14 6t-6 14q0 58 -4 157zM42 60q77 0 232 -3.5 t233 -3.5q8 0 14 -6t6 -14t-6 -14t-14 -6q-78 0 -233 3.5t-232 3.5q-8 0 -14 6t-6 14t6 14t14 6z" />
<glyph unicode="&#xb2;" horiz-adv-x="276" d="M7 562q14 39 50 67t76 35q45 8 77 -13q37 -24 43 -78q4 -35 -18 -67.5t-61 -67.5l-41 -35q-28 -23 -44 -38.5t-26 -29.5l-7 -11h67q47 0 76 -1q41 -2 55 -7q7 -3 11 -10.5t1 -15t-10.5 -11.5t-15.5 -1t-43 5q-28 1 -74 1h-38h-32h-23q-5 0 -8 1h-3q-2 0 -4 1q-5 1 -9 6 q-6 6 -5 15q0 2 1 4q0 1 1 2q0 1 1 3q1 1 2 3l7 12q10 17 18 28q11 15 29.5 33t47.5 42l39 34q70 63 66 101q-4 35 -25 49q-19 12 -48 7q-30 -5 -57.5 -26.5t-37.5 -50.5q-3 -8 -10.5 -11.5t-15.5 -0.5t-11.5 10.5t-0.5 15.5z" />
<glyph unicode="&#xb3;" horiz-adv-x="299" d="M2 572q49 93 121 105q32 6 60.5 -5.5t48 -33.5t25 -49t-6.5 -56q-8 -16 -21 -28q37 -19 53 -58.5t9 -81.5q-7 -43 -48 -74t-90 -38q-54 -7 -93 20q-45 31 -54 99q-1 8 4 14.5t13.5 7.5t15 -4t7.5 -14q6 -49 36 -70q27 -19 66 -13q39 5 69 28.5t34 49.5q6 38 -9.5 67.5 t-47.5 35.5q-5 2 -19 1q-26 -9 -58 -12h-4h-3q-6 2 -10 6q-10 9 -5 22q2 4 6 8l4 2q3 2 9 4q9 3 17 4q14 4 37 5q35 13 46 36q15 31 -13 62q-29 33 -71 26q-53 -9 -92 -84q-4 -8 -12 -10.5t-15.5 1.5t-10 12t1.5 15z" />
<glyph unicode="&#xb4;" horiz-adv-x="212" d="M196 685q-39 -36 -82 -99q-5 -7 -13 -8.5t-15 3t-8.5 12.5t2.5 15q47 68 90 107q6 5 14 5t13.5 -6.5t5.5 -14.5t-7 -14z" />
<glyph unicode="&#xb5;" horiz-adv-x="481" d="M98 199q0 -121 31 -158q21 -24 63 -2q43 23 94 82.5t88 122.5q1 3 3 5l56 223q2 8 9 12t15 2t12 -9t2 -15l-26 -106l-28 -115l-27 -103q-16 -61 -31 -112q-2 -8 -9.5 -12t-15.5 -1.5t-12 10t-1 15.5l27 96q-74 -96 -138 -130q-69 -37 -111 11q-22 26 -32 77 q-40 -151 -67 -273q-2 -8 -9 -12.5t-15 -3t-12.5 8.5t-3.5 15q42 183 172 656q2 8 9 12t15 2t12 -9t2 -15l-73 -267q1 -4 1 -7z" />
<glyph unicode="&#xb6;" horiz-adv-x="487" d="M187 274q-80 5 -127 34q-74 46 -65 145q4 39 21.5 77.5t42.5 66.5q34 35 75 58t77.5 33.5t86 13t84 0.5t86.5 -7q8 -1 13.5 -7.5t4.5 -14.5t-7.5 -13.5t-14.5 -4.5q-20 2 -36 3q-3 -31 -3 -80q-1 -83 -1 -94q-5 -152 -5 -619q0 -8 -6 -14t-14 -6t-14 6t-6 14q0 468 5 621 q0 10 1 92q0 50 3 83q-90 5 -151 -8q-4 -34 -4 -85q-1 -89 -1 -91q-6 -176 -6 -603q0 -8 -6 -14t-14 -6t-14 6t-6 14q0 295 1 400zM81 347v-1v1zM71 352q-1 -1 -1 -2l1 -1v3z" />
<glyph unicode="&#xb7;" horiz-adv-x="144" d="M134 336q0 -8 -6 -14t-14 -6t-14 6t-6 14t6 14t14 6t14 -6t6 -14z" />
<glyph unicode="&#xb8;" horiz-adv-x="217" d="M181 13q-17 -25 -59 -71l-6 -6h3q59 0 78 -42q18 -38 4 -68q-12 -27 -46 -37q-30 -8 -64.5 2t-58.5 36q-6 6 -6 14.5t6 14t14.5 5.5t13.5 -6q18 -19 41.5 -25.5t42.5 -1.5q16 4 21 15q6 13 -4 35q-9 18 -42 18q-1 0 -30 -2q-9 -1 -14 0q-14 1 -20 11q-5 6 -4 14q1 3 2 5 q0 2 1 3t1 2q1 0 2 1l2 3l8 8l26 28q39 44 56 68q4 6 12.5 7.5t15 -3t8 -13t-3.5 -15.5z" />
<glyph unicode="&#xb9;" horiz-adv-x="195" d="M170 650q0 -58 7 -175q8 -134 8 -178q0 -8 -6 -14t-14 -6t-14 6t-6 14q0 58 -7 175q-8 134 -8 178q0 8 6 14t14 6t14 -6t6 -14z" />
<glyph unicode="&#xba;" horiz-adv-x="314" d="M223 699q3 0 7 -2q39 -19 57.5 -54.5t17.5 -73t-16 -72.5q-24 -56 -76 -84t-114 -1q-34 14 -52 44t-18 62.5t9 65.5q16 52 56 88t92 33q25 -1 37 -6zM219 647q-5 12 -10 14.5t-25 3.5q-35 2 -65 -24.5t-43 -68.5q-13 -40 -3 -75t42 -49q43 -18 80.5 1.5t56.5 63.5 q15 32 13 65.5t-21 57.5q-8 -2 -15 1t-10 10z" />
<glyph unicode="&#xbb;" horiz-adv-x="445" d="M107 395q5 -4 67 -44l40 -27q10 -6 14 -10l5 -5q2 -1 3 -3q3 -4 4 -8q3 -12 -5 -25q-5 -8 -14 -17q-14 -15 -39 -37q-40 -36 -69 -56q-7 -5 -15 -3.5t-13 8t-3.5 14.5t7.5 13q28 20 67 54q23 20 36 34l4 5l-5 3l-39 26q-68 45 -71 48q-6 5 -7 13t4.5 14.5t13.5 7.5t15 -5 zM298 398q28 -22 83 -58q43 -27 51 -44q15 -30 -21 -63q-25 -23 -101 -71q-7 -4 -15.5 -2.5t-12.5 8.5t-2.5 15.5t8.5 12.5q74 46 96 66q21 20 15 19l-2 -3q-4 8 -37 29q-59 37 -86 59q-7 5 -8 13.5t4 15t13.5 7.5t14.5 -4z" />
<glyph unicode="&#xbc;" horiz-adv-x="692" d="M224 648q22 -210 22 -357q0 -8 -6 -14t-14 -6t-14 6t-6 14q0 145 -22 353q-1 8 4.5 14.5t13.5 7.5t14.5 -4.5t7.5 -13.5zM200 19l33 67l36 70l32 65q28 54 37 71l35 64q25 47 38 69l37 63q24 41 41 68l41 60l45 65q5 6 13 7.5t14.5 -3.5t8 -13t-3.5 -15l-44 -63l-40 -60 q-17 -26 -41 -67l-37 -61q-12 -21 -37.5 -69.5t-34 -63.5t-36.5 -71l-32 -64q-5 -8 -36 -70l-33 -67q-4 -7 -12 -10t-15 1t-10 12t1 15zM522 376q9 -79 1 -179q74 7 101 8q-4 102 -22 169q-2 8 2 15t12 9t15 -2t9 -12q20 -71 24 -178q8 0 13.5 -6t5.5 -14t-5.5 -13.5 t-13.5 -6.5q1 -25 0.5 -69.5t-0.5 -55.5q0 -8 -6 -14t-14 -6t-14 6t-6 14q0 12 0.5 56t-0.5 68q-13 -1 -114 -10q-15 -1 -20 12q-9 7 -8 18q10 108 0 187q-1 8 4 14.5t13.5 7.5t15 -4t7.5 -14z" />
<glyph unicode="&#xbd;" horiz-adv-x="758" d="M224 648q22 -210 22 -357q0 -8 -6 -14t-14 -6t-14 6t-6 14q0 145 -22 353q-1 8 4.5 14.5t13.5 7.5t14.5 -4.5t7.5 -13.5zM200 19l33 67l36 70l32 65q28 54 37 71l35 64q25 47 38 69l37 63q24 41 41 68l41 60l45 65q5 6 13 7.5t14.5 -3.5t8 -13t-3.5 -15l-44 -63l-40 -60 q-17 -26 -41 -67l-37 -61q-12 -21 -37.5 -69.5t-34 -63.5t-36.5 -71l-32 -64q-5 -8 -36 -70l-33 -67q-4 -7 -12 -10t-15 1t-10 12t1 15zM468 298q21 36 55.5 53.5t67.5 11.5q37 -7 54 -39q17 -33 4 -82q-13 -52 -68 -113q-7 -8 -21 -23l-22 -22q-8 -9 -18 -21.5t-17 -24.5 q5 -1 8 -1q12 0 79 -1q128 -1 141 -3q9 -1 14 -7.5t4 -15t-7.5 -13.5t-14.5 -4q-12 2 -137 3q-69 1 -81 1q-18 1 -28 2q-6 0 -10 1q-2 1 -5 2q-6 2 -10 7q-13 17 3 38q1 2 6 8q3 3 4 5q8 12 19.5 26.5t20.5 23.5l22 24q15 16 20 22q49 53 60 96q8 34 -2 54q-8 14 -25 18 q-20 3 -43 -8.5t-39 -37.5q-4 -7 -12 -9t-15 2t-9 12t2 15z" />
<glyph unicode="&#xbe;" horiz-adv-x="737" d="M200 19l33 67l36 70l32 65q28 54 37 71l35 64q25 47 38 69l37 63q24 41 41 68l41 60l45 65q5 6 13 7.5t14.5 -3.5t8 -13t-3.5 -15l-44 -63l-40 -60q-17 -26 -41 -67l-37 -61q-12 -21 -37.5 -69.5t-34 -63.5t-36.5 -71l-32 -64q-5 -8 -36 -70l-33 -67q-4 -7 -12 -10t-15 1 t-10 12t1 15zM60 591q11 36 51 54.5t83 16.5q46 -1 74 -23q35 -28 26 -75q-9 -42 -57 -71q3 -1 7 -3q48 -25 59 -91q5 -32 -10 -56q-37 -58 -104.5 -66.5t-118.5 35.5q-10 8 -18.5 19.5t-18 27.5t-10.5 18q-4 7 -2.5 15t8.5 12.5t15 3t13 -8.5t12.5 -21t13.5 -22t13 -14 q39 -32 87.5 -25.5t75.5 48.5q7 10 4 28q-7 46 -37 61q-29 15 -80 6h-1h-1h-1h-1h-3q-5 1 -10 4q-9 7 -7 18q0 7 6 12l7 5h1h1h1l1 1l6 1q12 2 15 3q17 5 36 13q52 22 58 55q5 23 -11 35q-18 14 -51 15q-34 2 -61 -11t-33 -32q-2 -8 -9.5 -12t-15.5 -1.5t-12 10t-1 15.5z M541 372q-2 -16 -7 -124q-2 -42 -3 -69l-1 -16h12q21 1 59 7q10 1 21 3q0 5 -0.5 24t-0.5 25t-0.5 22.5t-1.5 24t-2 22t-2 24.5l-4 23q-2 12 -5 24q-1 8 3.5 15t12.5 8.5t15 -3t9 -12.5q13 -60 16 -190q40 7 43 8q9 1 15.5 -4t7.5 -13.5t-4 -15t-13 -7.5q-2 0 -48 -8 q1 -8 1 -15q1 -13 5 -49q3 -32 3 -52q0 -8 -6 -14t-14 -6t-14 6t-6 14q0 18 -3 48q-5 47 -5 51v10l-17 -3q-40 -6 -64 -7q-15 0 -25 1q-18 3 -25 15l-3 7v1v2v1v2v3v3q1 8 1 23q1 27 3 69q6 109 7 126q1 8 7.5 13.5t14.5 4.5t13.5 -7.5t4.5 -14.5z" />
<glyph unicode="&#xbf;" horiz-adv-x="397" d="M309 339q-1 -9 7 -88q3 -38 4 -53q1 -12 2 -18q0 -5 -1 -7v-5q-1 -7 -8 -12q-16 -11 -48 -6l-13 2q-8 2 -11 3q-15 3 -25 4q-62 5 -100 -46q-33 -44 -26 -121q4 -42 36.5 -77t79.5 -52q45 -17 87.5 -7t64.5 48q4 7 12 9t15 -2t9 -12t-2 -15q-20 -36 -55 -54t-71 -17 t-73 12q-56 20 -97 64t-46 99q-8 92 34 149q51 69 136 61q12 -1 28 -4q3 0 11 -2t12 -2q6 -1 10 -2v7q-2 14 -5 52q-8 83 -7 96q1 8 7 13.5t14.5 4.5t14 -7t4.5 -15zM318 474q0 -8 -6 -14t-14 -6t-14 6t-6 14t6 14t14 6t14 -6t6 -14z" />
<glyph unicode="&#xc0;" d="M474 174l-32 78l-141 374l-174 -452h347zM322 685l158 -419l30 -74l39 -98q14 -39 26 -77q3 -8 -1 -15.5t-12 -10t-15.5 1.5t-9.5 12q-17 54 -47 129h-378v2l-49 -128q-3 -8 -10.5 -11.5t-15.5 -0.5t-11.5 10.5t-0.5 15.5l116 298q93 238 140 368q3 8 10.5 11.5t15.5 0.5 q5 -2 9 -6t6 -9zM262 818q23 -16 65 -60q5 -6 5 -14.5t-6 -14t-14.5 -5.5t-14.5 6q-39 42 -57 54q-7 5 -8.5 13t3 15t12.5 8.5t15 -2.5z" />
<glyph unicode="&#xc1;" d="M474 174l-32 78l-141 374l-174 -452h347zM322 685l158 -419l30 -74l39 -98q14 -39 26 -77q3 -8 -1 -15.5t-12 -10t-15.5 1.5t-9.5 12q-17 54 -47 129h-378v2l-49 -128q-3 -8 -10.5 -11.5t-15.5 -0.5t-11.5 10.5t-0.5 15.5l116 298q93 238 140 368q3 8 10.5 11.5t15.5 0.5 q5 -2 9 -6t6 -9zM227 753q9 11 28 29q18 18 26 27q5 6 13.5 7t14.5 -4.5t7 -14t-5 -14.5q-9 -10 -28 -29q-17 -17 -26 -27q-5 -6 -13.5 -7t-14.5 4.5t-7 14t5 14.5z" />
<glyph unicode="&#xc2;" d="M474 174l-32 78l-141 374l-174 -452h347zM322 685l158 -419l30 -74l39 -98q14 -39 26 -77q3 -8 -1 -15.5t-12 -10t-15.5 1.5t-9.5 12q-17 54 -47 129h-378v2l-49 -128q-3 -8 -10.5 -11.5t-15.5 -0.5t-11.5 10.5t-0.5 15.5l116 298q93 238 140 368q3 8 10.5 11.5t15.5 0.5 q5 -2 9 -6t6 -9zM197 708q5 8 22 32q15 22 23 32q23 30 42 36q27 7 53 -20q18 -19 48 -70q4 -7 2 -15t-9 -12t-15 -2t-12 9q-28 46 -43 62q-8 8 -13 9q-6 -2 -21 -22q-7 -9 -23 -31l-22 -32q-4 -6 -12.5 -7.5t-15 3t-8 13t3.5 15.5z" />
<glyph unicode="&#xc3;" d="M474 174l-32 78l-141 374l-174 -452h347zM322 685l158 -419l30 -74l39 -98q14 -39 26 -77q3 -8 -1 -15.5t-12 -10t-15.5 1.5t-9.5 12q-17 54 -47 129h-378v2l-49 -128q-3 -8 -10.5 -11.5t-15.5 -0.5t-11.5 10.5t-0.5 15.5l116 298q93 238 140 368q3 8 10.5 11.5t15.5 0.5 q5 -2 9 -6t6 -9zM177 705q22 53 56 63q22 6 62 -7q37 -12 54 -12q32 1 64 29q6 6 14.5 5t14 -7t4.5 -14.5t-7 -13.5q-43 -38 -89 -39q-25 -1 -68 14q-28 10 -38 7q-16 -5 -31 -41q-3 -7 -10.5 -10.5t-15 0t-11 11t0.5 15.5z" />
<glyph unicode="&#xc4;" d="M474 174l-32 78l-141 374l-174 -452h347zM322 685l158 -419l30 -74l39 -98q14 -39 26 -77q3 -8 -1 -15.5t-12 -10t-15.5 1.5t-9.5 12q-17 54 -47 129h-378v2l-49 -128q-3 -8 -10.5 -11.5t-15.5 -0.5t-11.5 10.5t-0.5 15.5l116 298q93 238 140 368q3 8 10.5 11.5t15.5 0.5 q5 -2 9 -6t6 -9zM248 763q0 -8 -6 -14t-14 -6t-14 6t-6 14t6 14t14 6t14 -6t6 -14zM393 765q0 -8 -6 -14t-14 -6t-14 6t-6 14t6 14t14 6t14 -6t6 -14z" />
<glyph unicode="&#xc5;" d="M474 174l-32 78l-141 374l-174 -452h347zM312 706q16 6 22.5 17.5t4.5 23.5q-2 14 -15.5 22t-39.5 0q-14 -5 -20 -16.5t-3 -23.5q8 -28 51 -23zM341 676q-5 -6 -12 -8h-1l152 -402l30 -74l39 -98q14 -39 26 -77q3 -8 -1 -15.5t-12 -10t-15.5 1.5t-9.5 12q-17 54 -47 129 h-378v2l-49 -128q-3 -8 -10.5 -11.5t-15.5 -0.5t-11.5 10.5t-0.5 15.5l115 294q89 228 134 353q-40 11 -51 49q-8 27 5.5 53t43.5 36q42 14 72 -3t34 -51q4 -23 -6 -43.5t-31 -33.5z" />
<glyph unicode="&#xc6;" horiz-adv-x="896" d="M115 227q27 0 76.5 -1t71.5 -2q87 0 146 4q1 218 -6 433q-8 -1 -48 -2t-62 -1q-109 -238 -161 -388q-7 -19 -17 -43zM-5 24q13 52 47 133q46 109 52 127q53 152 167 399q3 7 10 10q6 5 13 5q25 0 71.5 1.5t63.5 1.5h2h3h18q6 0 11 -3q66 0 204.5 -1t210.5 -1q8 0 14 -6 t6 -14t-6 -14t-14 -6q-72 0 -214 1t-211 1q3 -83 4 -168q65 0 199 -1t202 -1q8 0 14 -6t6 -14t-6 -14t-14 -6q-68 0 -201.5 1t-198.5 1q3 -200 -2 -401q65 0 202.5 -1t209.5 -1q8 0 14 -6t6 -14t-6 -14t-14 -6q-72 0 -216.5 1t-216.5 1q-8 0 -14 6t-6 14q0 3 1 6v2 q2 76 2 151q-59 -4 -145 -4q-20 1 -77 2t-87 1l-20 -46q-33 -77 -46 -127q-2 -8 -9 -12t-15 -2t-12 9t-2 15z" />
<glyph unicode="&#xc7;" horiz-adv-x="554" d="M507 496q-3 37 -26.5 76t-57.5 64q-77 56 -140 0q-75 -67 -109 -176q-33 -108 -21 -220q10 -98 72 -155t136 -58q74 0 117 53q50 62 35 173q-1 9 4 15.5t13.5 7.5t15 -4t7.5 -13q17 -129 -44 -204q-55 -68 -148 -68h-4q-1 -8 -8 -13q-5 -4 -28 -30q14 1 27 -1 q48 -6 66 -44q24 -49 6 -86q-16 -34 -59 -45q-38 -10 -81 1t-73 42q-5 6 -5 14.5t6 14t14.5 5.5t14.5 -6q21 -23 53.5 -31.5t59.5 -1.5q25 7 34 24q9 20 -6 51q-9 19 -35 23q-26 3 -53 -8l-6 -6q-6 -5 -12 -7q-14 -6 -25 4q-7 6 -7 15q0 3 1 6l2 4q0 1 1 2.5t3 3.5l7 9 l24 29q21 24 34 37q-77 18 -133 82t-66 161q-12 119 24 237t120 193q30 27 64.5 34t65 -2t59.5 -30q41 -29 69 -75.5t32 -92.5q1 -8 -4.5 -14.5t-13.5 -7.5t-14.5 4.5t-7.5 13.5z" />
<glyph unicode="&#xc8;" horiz-adv-x="580" d="M110 693q72 0 216.5 -1t216.5 -1q8 0 14 -6t6 -14t-6 -14t-14 -6q-72 0 -209.5 1t-201.5 1q3 -93 4 -188q64 0 197 -1t201 -1q8 0 14 -6t6 -14t-6 -14t-14 -6q-68 0 -200.5 1t-196.5 1q2 -189 -2 -378q66 0 204.5 -1t210.5 -1q8 0 14 -6t6 -14t-6 -14t-14 -6 q-72 0 -216.5 1t-216.5 1q-16 0 -19 15q-3 5 -3 10q7 319 -4 634v1q-1 3 -1 6q0 8 6 14t14 6zM302 820q13 -10 31 -27q24 -22 28 -26q6 -5 7 -13.5t-4.5 -14.5t-14 -7t-14.5 5q-5 4 -29 27q-16 15 -28 24q-7 5 -8 13t4 15t13 8t15 -4z" />
<glyph unicode="&#xc9;" horiz-adv-x="580" d="M110 693q72 0 216.5 -1t216.5 -1q8 0 14 -6t6 -14t-6 -14t-14 -6q-72 0 -209.5 1t-201.5 1q3 -93 4 -188q64 0 197 -1t201 -1q8 0 14 -6t6 -14t-6 -14t-14 -6q-68 0 -200.5 1t-196.5 1q2 -189 -2 -378q66 0 204.5 -1t210.5 -1q8 0 14 -6t6 -14t-6 -14t-14 -6 q-72 0 -216.5 1t-216.5 1q-16 0 -19 15q-3 5 -3 10q7 319 -4 634v1q-1 3 -1 6q0 8 6 14t14 6zM265 761q17 15 52 55q5 6 13.5 7t14.5 -4.5t7 -14t-5 -14.5q-36 -43 -56 -59q-7 -6 -15 -5t-13.5 7.5t-4.5 14.5t7 13z" />
<glyph unicode="&#xca;" horiz-adv-x="580" d="M110 693q72 0 216.5 -1t216.5 -1q8 0 14 -6t6 -14t-6 -14t-14 -6q-72 0 -209.5 1t-201.5 1q3 -93 4 -188q64 0 197 -1t201 -1q8 0 14 -6t6 -14t-6 -14t-14 -6q-68 0 -200.5 1t-196.5 1q2 -189 -2 -378q66 0 204.5 -1t210.5 -1q8 0 14 -6t6 -14t-6 -14t-14 -6 q-72 0 -216.5 1t-216.5 1q-16 0 -19 15q-3 5 -3 10q7 319 -4 634v1q-1 3 -1 6q0 8 6 14t14 6zM202 738l26 30q16 19 23 26q24 25 43 27q22 2 47 -23q14 -13 53 -60q5 -7 4 -15t-7.5 -13.5t-14.5 -4.5t-14 7q-37 46 -49 58q-5 5 -9 8t-5 3h-1q-5 0 -18 -15q-6 -6 -22 -24 l-26 -30q-6 -7 -14 -7t-14.5 5.5t-6.5 13.5t5 14z" />
<glyph unicode="&#xcb;" horiz-adv-x="580" d="M110 693q72 0 216.5 -1t216.5 -1q8 0 14 -6t6 -14t-6 -14t-14 -6q-72 0 -209.5 1t-201.5 1q3 -93 4 -188q64 0 197 -1t201 -1q8 0 14 -6t6 -14t-6 -14t-14 -6q-68 0 -200.5 1t-196.5 1q2 -189 -2 -378q66 0 204.5 -1t210.5 -1q8 0 14 -6t6 -14t-6 -14t-14 -6 q-72 0 -216.5 1t-216.5 1q-16 0 -19 15q-3 5 -3 10q7 319 -4 634v1q-1 3 -1 6q0 8 6 14t14 6zM271 791q0 -8 -6 -14t-14 -6t-14 6t-6 14t6 14t14 6t14 -6t6 -14zM443 793q0 -8 -6 -14t-14 -6t-14 6t-6 14t6 14t14 6t14 -6t6 -14z" />
<glyph unicode="&#xcc;" horiz-adv-x="164" d="M141 682q11 -328 4 -663q0 -9 -6 -14.5t-14.5 -5.5t-14 6t-5.5 14q7 335 -4 661q0 9 5.5 15t14 6t14.5 -5.5t6 -13.5zM97 828q12 -13 28 -36l24 -33q6 -7 5 -15t-7.5 -13.5t-14.5 -4.5t-13 7q-8 10 -27 36q-14 20 -25 31q-5 6 -5 14.5t6 14t14.5 5.5t14.5 -6z" />
<glyph unicode="&#xcd;" horiz-adv-x="167" d="M143 682q11 -328 4 -663q0 -9 -6 -14.5t-14.5 -5.5t-14 6t-5.5 14q7 335 -4 661q0 9 5.5 15t14 6t14.5 -5.5t6 -13.5zM70 757q38 23 54 41q5 6 13.5 7t14.5 -4.5t7 -14t-5 -14.5q-20 -23 -64 -49q-7 -4 -15 -2t-12 9t-2 15t9 12z" />
<glyph unicode="&#xce;" horiz-adv-x="214" d="M142 682q11 -328 4 -663q0 -9 -6 -14.5t-14.5 -5.5t-14 6t-5.5 14q7 335 -4 661q0 9 5.5 15t14 6t14.5 -5.5t6 -13.5zM48 734l42 53q9 10 15 15q11 9 23 8.5t22 -9.5q6 -6 14 -17l37 -53q5 -7 4 -15t-8 -13t-15 -4t-13 8l-38 54q-3 4 -5 7q-2 -3 -6 -7l-42 -53 q-5 -6 -13 -7t-14.5 4.5t-7.5 13.5t5 15z" />
<glyph unicode="&#xcf;" horiz-adv-x="222" d="M141 682q11 -328 4 -663q0 -9 -6 -14.5t-14.5 -5.5t-14 6t-5.5 14q7 335 -4 661q0 9 5.5 15t14 6t14.5 -5.5t6 -13.5zM63 775q0 -8 -6 -14t-14 -6t-14 6t-6 14t6 14t14 6t14 -6t6 -14zM212 769q0 -8 -6 -14t-14 -6t-14 6t-6 14t6 14t14 6t14 -6t6 -14z" />
<glyph unicode="&#xd0;" horiz-adv-x="584" d="M131 347q1 -203 1 -305q99 3 178 30.5t127 71t73.5 96t25.5 109.5q0 56 -25 109t-73.5 96.5t-128.5 71t-180 29.5q0 -100 1 -268q97 0 132 2q8 0 14.5 -5.5t6.5 -13.5t-5.5 -14.5t-13.5 -6.5q-34 -2 -133 -2zM115 695q110 0 199.5 -29t145.5 -78t86 -110.5t30 -129.5 q0 -67 -30.5 -128t-86.5 -110t-144 -78t-197 -30q-3 -1 -6 -1q-8 0 -14 6t-6 14q0 109 -1 325q-45 -1 -79 -3q-8 -1 -14 4.5t-7 14t4.5 14.5t14.5 7q34 2 80 3q-1 183 -1 289q0 8 6 14t14 6h3h3z" />
<glyph unicode="&#xd1;" horiz-adv-x="567" d="M82 16q0 109 1.5 327t1.5 327v4q-1 9 4 16t13.5 8t14.5 -4q45 -36 101 -76l92 -65l110 -75l96 -65q1 165 1 268q0 8 6 14t14 6t14 -6t6 -14q0 -110 -1.5 -330.5t-1.5 -330.5q0 -8 -6 -14t-14 -6t-14 6t-6 14q0 110 2 346q-3 1 -5 2l-95 64l-102 70l-92 64l-97 71 q0 -97 -1.5 -304.5t-1.5 -316.5q0 -8 -6 -14t-14 -6t-14 6t-6 14zM177 697q55 73 97 74q14 0 28 -8t19.5 -13.5t15.5 -18.5q25 -28 40 -29q28 -3 79 47q6 6 14 6t14 -6t6 -14t-6 -14q-64 -64 -111 -59q-15 1 -29 10t-20 15t-17 18q-22 26 -32 26q-23 -1 -66 -58 q-5 -7 -13.5 -8t-15 4t-7.5 13.5t4 14.5z" />
<glyph unicode="&#xd2;" horiz-adv-x="638" d="M378 706q5 4 12 3q52 -5 96 -25.5t74 -52.5t53 -73.5t33 -87.5t14 -94.5t-4 -94.5q-10 -73 -40 -136.5t-77 -105.5q-111 -97 -268 -41q-114 41 -151 175q-32 116 3 254q36 138 118 216q63 60 137 63zM435 658q-89 30 -166 -44q-74 -71 -107 -197q-33 -128 -4 -233 q32 -114 127 -148q134 -49 227 33q41 36 68 93t36 124q11 81 -4 156t-58.5 133.5t-110.5 81.5q-4 0 -8 1zM358 811q6 -9 46 -55q5 -6 4.5 -14.5t-6.5 -13.5t-14.5 -4.5t-13.5 6.5q-42 47 -50 59q-4 7 -2.5 15t8.5 12.5t15 3t13 -8.5z" />
<glyph unicode="&#xd3;" horiz-adv-x="638" d="M378 706q5 4 12 3q52 -5 96 -25.5t74 -52.5t53 -73.5t33 -87.5t14 -94.5t-4 -94.5q-10 -73 -40 -136.5t-77 -105.5q-111 -97 -268 -41q-114 41 -151 175q-32 116 3 254q36 138 118 216q63 60 137 63zM435 658q-89 30 -166 -44q-74 -71 -107 -197q-33 -128 -4 -233 q32 -114 127 -148q134 -49 227 33q41 36 68 93t36 124q11 81 -4 156t-58.5 133.5t-110.5 81.5q-4 0 -8 1zM400 786q-10 -10 -43 -56q-5 -6 -13 -7.5t-14.5 3.5t-8 13t3.5 15q35 48 47 60q6 6 14 6t14 -6t6 -14t-6 -14z" />
<glyph unicode="&#xd4;" horiz-adv-x="638" d="M378 706q5 4 12 3q52 -5 96 -25.5t74 -52.5t53 -73.5t33 -87.5t14 -94.5t-4 -94.5q-10 -73 -40 -136.5t-77 -105.5q-111 -97 -268 -41q-114 41 -151 175q-32 116 3 254q36 138 118 216q63 60 137 63zM435 658q-89 30 -166 -44q-74 -71 -107 -197q-33 -128 -4 -233 q32 -114 127 -148q134 -49 227 33q41 36 68 93t36 124q11 81 -4 156t-58.5 133.5t-110.5 81.5q-4 0 -8 1zM284 745q24 22 46 54q13 19 14 20q9 12 18 17q22 10 55 -14q15 -11 79 -67q6 -5 7 -13.5t-4.5 -14.5t-14 -7t-14.5 5q-63 55 -77 65q-9 7 -14 9q-1 -1 -3 -4 q-1 -1 -13 -18q-23 -35 -53 -62q-6 -5 -14 -5t-13.5 6.5t-5.5 14.5t7 14z" />
<glyph unicode="&#xd5;" horiz-adv-x="638" d="M378 706q5 4 12 3q52 -5 96 -25.5t74 -52.5t53 -73.5t33 -87.5t14 -94.5t-4 -94.5q-10 -73 -40 -136.5t-77 -105.5q-111 -97 -268 -41q-114 41 -151 175q-32 116 3 254q36 138 118 216q63 60 137 63zM435 658q-89 30 -166 -44q-74 -71 -107 -197q-33 -128 -4 -233 q32 -114 127 -148q134 -49 227 33q41 36 68 93t36 124q11 81 -4 156t-58.5 133.5t-110.5 81.5q-4 0 -8 1zM277 749q31 48 64 52q22 3 54 -18q25 -16 38 -17q22 -3 51 21q7 6 15 5t13.5 -7.5t4.5 -14.5t-7 -13q-42 -35 -81 -31q-22 3 -56 24q-20 12 -27 12q-14 -2 -35 -35 q-5 -7 -13 -8.5t-15 3t-8.5 12.5t2.5 15z" />
<glyph unicode="&#xd6;" horiz-adv-x="638" d="M378 706q5 4 12 3q52 -5 96 -25.5t74 -52.5t53 -73.5t33 -87.5t14 -94.5t-4 -94.5q-10 -73 -40 -136.5t-77 -105.5q-111 -97 -268 -41q-114 41 -151 175q-32 116 3 254q36 138 118 216q63 60 137 63zM435 658q-89 30 -166 -44q-74 -71 -107 -197q-33 -128 -4 -233 q32 -114 127 -148q134 -49 227 33q41 36 68 93t36 124q11 81 -4 156t-58.5 133.5t-110.5 81.5q-4 0 -8 1zM320 763q0 -8 -6 -14t-14 -6t-14 6t-6 14t6 14t14 6t14 -6t6 -14zM487 775q0 -8 -6 -14t-14 -6t-14 6t-6 14t6 14t14 6t14 -6t6 -14z" />
<glyph unicode="&#xd7;" horiz-adv-x="508" d="M284 215l-190 -175q-6 -5 -14.5 -4.5t-13.5 6.5t-4.5 14.5t6.5 13.5l188 173l-206 197q-6 5 -6 13.5t5.5 14.5t14 6t14.5 -6l207 -198l180 177q6 6 14 6t14 -6t6 -14t-6 -14l-180 -177q91 -91 159 -168q6 -6 5 -14.5t-7 -14t-14.5 -4.5t-13.5 7q-68 77 -158 167z" />
<glyph unicode="&#xd8;" horiz-adv-x="682" d="M547 538l-37 -38l-163 -172q-11 -13 -82 -90l-106 -119l-3 -3q36 -58 98 -80q134 -48 227 33q41 36 68 93q27 56 36 124q20 144 -38 252zM130 83q-49 -58 -81 -86q-6 -6 -14.5 -5t-14 7t-4.5 14.5t7 13.5q29 26 85 93q-11 25 -19 53q-32 116 3 254q36 138 118 216 q63 60 137 63q5 4 12 3q121 -11 194 -106q48 54 84 101q5 7 13.5 8t15 -4t7.5 -13.5t-4 -14.5q-40 -52 -94 -111q35 -61 47.5 -137t2.5 -151q-10 -73 -40 -136.5t-77 -105.5q-111 -97 -268 -41q-68 25 -110 85zM404 658q-89 30 -166 -44q-74 -71 -107 -197q-33 -128 -4 -233 q5 -16 10 -29l180 199l165 173l43 46q-45 61 -113 84q-4 0 -8 1z" />
<glyph unicode="&#xd9;" horiz-adv-x="579" d="M168 683q0 -36 -7 -154q-7 -115 -5 -175q3 -206 80 -287q31 -33 88 -41q59 -9 101 23q38 30 65 95q24 59 34 162.5t8 198t-11 174.5q-1 8 4.5 14.5t13.5 7.5t14.5 -4.5t7.5 -13.5q9 -81 11 -177t-8.5 -205t-37.5 -173q-30 -74 -76 -110q-56 -44 -132 -32q-70 11 -110 53 q-89 93 -92 315q-2 62 5 177q7 117 7 152q0 8 6 14t14 6t14 -6t6 -14zM316 819q73 -63 92 -83q6 -6 6 -14t-6 -14t-14 -6t-14 6q-19 18 -90 81q-6 5 -7 13.5t4.5 14.5t14 7t14.5 -5z" />
<glyph unicode="&#xda;" horiz-adv-x="579" d="M168 683q0 -36 -7 -154q-7 -115 -5 -175q3 -206 80 -287q31 -33 88 -41q59 -9 101 23q38 30 65 95q24 59 34 162.5t8 198t-11 174.5q-1 8 4.5 14.5t13.5 7.5t14.5 -4.5t7.5 -13.5q9 -81 11 -177t-8.5 -205t-37.5 -173q-30 -74 -76 -110q-56 -44 -132 -32q-70 11 -110 53 q-89 93 -92 315q-2 62 5 177q7 117 7 152q0 8 6 14t14 6t14 -6t6 -14zM279 749q27 21 71 65q6 6 14 6t14 -6t6 -14t-6 -14q-46 -46 -75 -69q-6 -5 -14.5 -4t-13.5 7.5t-4 15t8 13.5z" />
<glyph unicode="&#xdb;" horiz-adv-x="579" d="M168 683q0 -36 -7 -154q-7 -115 -5 -175q3 -206 80 -287q31 -33 88 -41q59 -9 101 23q38 30 65 95q24 59 34 162.5t8 198t-11 174.5q-1 8 4.5 14.5t13.5 7.5t14.5 -4.5t7.5 -13.5q9 -81 11 -177t-8.5 -205t-37.5 -173q-30 -74 -76 -110q-56 -44 -132 -32q-70 11 -110 53 q-89 93 -92 315q-2 62 5 177q7 117 7 152q0 8 6 14t14 6t14 -6t6 -14zM256 713q10 14 25.5 38.5t21.5 32.5q22 31 43 32q19 0 46 -27l59 -62q6 -6 6 -14t-6 -14t-14 -6t-14 6l-59 62q-11 10 -17 14q-4 -4 -11 -14q-6 -8 -22 -32l-24 -38q-5 -7 -13 -8.5t-15 3t-8.5 12.5 t2.5 15z" />
<glyph unicode="&#xdc;" horiz-adv-x="579" d="M168 683q0 -36 -7 -154q-7 -115 -5 -175q3 -206 80 -287q31 -33 88 -41q59 -9 101 23q38 30 65 95q24 59 34 162.5t8 198t-11 174.5q-1 8 4.5 14.5t13.5 7.5t14.5 -4.5t7.5 -13.5q9 -81 11 -177t-8.5 -205t-37.5 -173q-30 -74 -76 -110q-56 -44 -132 -32q-70 11 -110 53 q-89 93 -92 315q-2 62 5 177q7 117 7 152q0 8 6 14t14 6t14 -6t6 -14zM293 763q0 -8 -6 -14t-14 -6t-14 6t-6 14t6 14t14 6t14 -6t6 -14zM440 765q0 -8 -6 -14t-14 -6t-14 6t-6 14t6 14t14 6t14 -6t6 -14z" />
<glyph unicode="&#xdd;" horiz-adv-x="524" d="M130 24q17 41 58 117l19 36l24 41q10 19 18 36l47 90q-41 58 -111 170l-102 158q-4 7 -2.5 15t8.5 12.5t15 3t13 -8.5l97 -152q66 -104 103 -158l160 309q4 7 12 10t15 -1t10 -12t-1 -15l-228 -439l-20 -36l-22 -42l-20 -36q-37 -67 -55 -114q-4 -7 -11.5 -10.5t-15 0 t-11 11t-0.5 15.5zM255 740q1 1 73 55q16 12 28 -4t-4 -28l-23 -17l-26 -19l-22 -17q-7 -6 -15 -5t-13.5 7.5t-4.5 14.5t7 13z" />
<glyph unicode="&#xde;" horiz-adv-x="502" d="M119 207q43 3 60 5t55.5 7.5t59.5 12t50 17.5t50 27t37 37q31 37 16 107q-17 84 -138 102q-85 12 -192 -9q-2 -53 -2 -86q0 -40 2 -114.5t2 -105.5zM118 692q4 -51 1 -134v-4q109 20 196 7q148 -22 172 -133q18 -88 -24 -141q-23 -28 -56 -49t-62 -32.5t-73 -20t-69 -11 t-70 -6.5q-9 -1 -14 -2q1 -88 -2 -158q0 -8 -6.5 -13.5t-14.5 -5.5t-13.5 6.5t-5.5 14.5q2 101 2.5 139.5t-2 138.5t-2.5 139q0 24 4 132q3 81 -1 129q-1 9 4.5 15t14 7t14.5 -4.5t7 -13.5z" />
<glyph unicode="&#xdf;" horiz-adv-x="480" d="M95 4q-32 94 -24 294q8 203 47 290q17 38 59 64.5t92 36.5q52 9 100 -1.5t76 -46.5q31 -44 30 -92.5t-30 -91.5t-74 -61q28 -14 50 -40q41 -47 53 -109.5t-7 -115.5q-19 -58 -66.5 -94.5t-116.5 -38.5q-65 -1 -100 31q-6 6 -6 14.5t5.5 14.5t14 6t14.5 -5q23 -22 72 -21 q55 1 92.5 30t52.5 76q16 44 6 95.5t-44 90.5q-38 43 -106 46q-17 -2 -39 -3l-4 -1q-6 -1 -8 -1q-8 -1 -13 0q-12 3 -16 14q-3 10 3 19q9 13 27 13q2 0 8 -1h3q20 1 37 0q43 6 74 18q33 13 55 46t22.5 69t-21.5 68q-19 24 -55.5 32.5t-80.5 -0.5q-43 -8 -77 -29t-46 -48 q-36 -81 -43 -275q-7 -193 22 -281q3 -8 -1 -15t-12 -10t-15 1t-10 12z" />
<glyph unicode="&#xe0;" horiz-adv-x="439" d="M113 400q30 43 64.5 69.5t81.5 30.5q42 3 73.5 -12.5t51 -46t31.5 -65t18 -76.5q3 -22 5.5 -46t3 -48.5t0.5 -44.5t-0.5 -46t-1 -39.5t-2 -37.5t-1.5 -29q0 -8 -6.5 -13.5t-14.5 -5.5t-13.5 6.5t-5.5 14.5q0 7 1 25t2 30q-27 -25 -62 -43q-97 -51 -170 -12 q-32 17 -51.5 47.5t-25.5 67.5q-13 80 35 138q55 67 159 60q65 -4 109 -37l-1 7q-12 83 -43.5 126.5t-86.5 39.5q-36 -3 -63.5 -24t-54.5 -60q-4 -6 -12.5 -7.5t-15 3t-8 13t3.5 15.5zM398 228q-38 51 -115 56q-84 5 -126 -45q-36 -45 -27 -107q10 -61 57 -86q54 -29 133 13 q49 25 82 67q1 55 -2 99q-1 2 -2 3zM195 699l47 -50q29 -31 47 -54q5 -6 4 -14.5t-7.5 -13.5t-15 -4t-13.5 8q-17 21 -44 50l-48 50q-5 6 -5 14.5t6 14t14.5 5.5t14.5 -6z" />
<glyph unicode="&#xe1;" horiz-adv-x="439" d="M113 400q30 43 64.5 69.5t81.5 30.5q42 3 73.5 -12.5t51 -46t31.5 -65t18 -76.5q3 -22 5.5 -46t3 -48.5t0.5 -44.5t-0.5 -46t-1 -39.5t-2 -37.5t-1.5 -29q0 -8 -6.5 -13.5t-14.5 -5.5t-13.5 6.5t-5.5 14.5q0 7 1 25t2 30q-27 -25 -62 -43q-97 -51 -170 -12 q-32 17 -51.5 47.5t-25.5 67.5q-13 80 35 138q55 67 159 60q65 -4 109 -37l-1 7q-12 83 -43.5 126.5t-86.5 39.5q-36 -3 -63.5 -24t-54.5 -60q-4 -6 -12.5 -7.5t-15 3t-8 13t3.5 15.5zM398 228q-38 51 -115 56q-84 5 -126 -45q-36 -45 -27 -107q10 -61 57 -86q54 -29 133 13 q49 25 82 67q1 55 -2 99q-1 2 -2 3zM161 571q37 66 78 121q5 7 13 8t15 -4t8 -13t-4 -15q-40 -54 -76 -117q-4 -7 -12 -9t-15 2t-9 12t2 15z" />
<glyph unicode="&#xe2;" horiz-adv-x="439" d="M113 400q30 43 64.5 69.5t81.5 30.5q42 3 73.5 -12.5t51 -46t31.5 -65t18 -76.5q3 -22 5.5 -46t3 -48.5t0.5 -44.5t-0.5 -46t-1 -39.5t-2 -37.5t-1.5 -29q0 -8 -6.5 -13.5t-14.5 -5.5t-13.5 6.5t-5.5 14.5q0 7 1 25t2 30q-27 -25 -62 -43q-97 -51 -170 -12 q-32 17 -51.5 47.5t-25.5 67.5q-13 80 35 138q55 67 159 60q65 -4 109 -37l-1 7q-12 83 -43.5 126.5t-86.5 39.5q-36 -3 -63.5 -24t-54.5 -60q-4 -6 -12.5 -7.5t-15 3t-8 13t3.5 15.5zM398 228q-38 51 -115 56q-84 5 -126 -45q-36 -45 -27 -107q10 -61 57 -86q54 -29 133 13 q49 25 82 67q1 55 -2 99q-1 2 -2 3zM153 593l27 49q15 29 22 40q10 18 17 26q12 12 26 14q13 2 28 -8q8 -6 22 -19q0 -1 24 -25l42 -40q6 -6 6 -14.5t-5.5 -14.5t-14 -6t-14.5 5l-42 42l-24 24q-11 11 -16 15h-2q-5 -6 -13 -19q-6 -10 -21.5 -39.5t-27.5 -49.5q-4 -7 -12 -9 t-15 2t-9 12t2 15z" />
<glyph unicode="&#xe3;" horiz-adv-x="439" d="M113 400q30 43 64.5 69.5t81.5 30.5q42 3 73.5 -12.5t51 -46t31.5 -65t18 -76.5q3 -22 5.5 -46t3 -48.5t0.5 -44.5t-0.5 -46t-1 -39.5t-2 -37.5t-1.5 -29q0 -8 -6.5 -13.5t-14.5 -5.5t-13.5 6.5t-5.5 14.5q0 7 1 25t2 30q-27 -25 -62 -43q-97 -51 -170 -12 q-32 17 -51.5 47.5t-25.5 67.5q-13 80 35 138q55 67 159 60q65 -4 109 -37l-1 7q-12 83 -43.5 126.5t-86.5 39.5q-36 -3 -63.5 -24t-54.5 -60q-4 -6 -12.5 -7.5t-15 3t-8 13t3.5 15.5zM398 228q-38 51 -115 56q-84 5 -126 -45q-36 -45 -27 -107q10 -61 57 -86q54 -29 133 13 q49 25 82 67q1 55 -2 99q-1 2 -2 3zM107 617q27 50 74 57q28 4 81 -9q26 -7 39 -9.5t31.5 -3t32 6t25.5 20.5q5 6 13.5 7t14.5 -4.5t7 -14t-5 -14.5q-18 -20 -38.5 -30.5t-44.5 -10t-38.5 3t-39.5 8.5q-5 2 -7 2q-45 12 -65 9q-27 -4 -44 -36q-4 -8 -12 -10.5t-15.5 1.5 t-10 12t1.5 15z" />
<glyph unicode="&#xe4;" horiz-adv-x="439" d="M113 400q30 43 64.5 69.5t81.5 30.5q42 3 73.5 -12.5t51 -46t31.5 -65t18 -76.5q3 -22 5.5 -46t3 -48.5t0.5 -44.5t-0.5 -46t-1 -39.5t-2 -37.5t-1.5 -29q0 -8 -6.5 -13.5t-14.5 -5.5t-13.5 6.5t-5.5 14.5q0 7 1 25t2 30q-27 -25 -62 -43q-97 -51 -170 -12 q-32 17 -51.5 47.5t-25.5 67.5q-13 80 35 138q55 67 159 60q65 -4 109 -37l-1 7q-12 83 -43.5 126.5t-86.5 39.5q-36 -3 -63.5 -24t-54.5 -60q-4 -6 -12.5 -7.5t-15 3t-8 13t3.5 15.5zM398 228q-38 51 -115 56q-84 5 -126 -45q-36 -45 -27 -107q10 -61 57 -86q54 -29 133 13 q49 25 82 67q1 55 -2 99q-1 2 -2 3zM204 625q0 -8 -6 -14t-14 -6t-14 6t-6 14t6 14t14 6t14 -6t6 -14zM372 624q0 -8 -6 -14t-14 -6t-14 6t-6 14t6 14t14 6t14 -6t6 -14z" />
<glyph unicode="&#xe5;" horiz-adv-x="439" d="M256 711q-22 -17 -17 -47q3 -18 13.5 -25t28.5 1q15 7 20 20t0 26q-10 29 -45 25zM292 747q34 -13 47 -47q10 -27 -0.5 -54.5t-41.5 -41.5q-37 -18 -67 2q-25 17 -30 52q-4 22 3 44.5t25 38.5q4 6 12 8q13 8 29 12q7 1 14 -3t9 -11zM113 400q30 43 64.5 69.5t81.5 30.5 q42 3 73.5 -12.5t51 -46t31.5 -65t18 -76.5q3 -22 5.5 -46t3 -48.5t0.5 -44.5t-0.5 -46t-1 -39.5t-2 -37.5t-1.5 -29q0 -8 -6.5 -13.5t-14.5 -5.5t-13.5 6.5t-5.5 14.5q0 7 1 25t2 30q-27 -25 -62 -43q-97 -51 -170 -12q-32 17 -51.5 47.5t-25.5 67.5q-13 80 35 138 q55 67 159 60q65 -4 109 -37l-1 7q-12 83 -43.5 126.5t-86.5 39.5q-36 -3 -63.5 -24t-54.5 -60q-4 -6 -12.5 -7.5t-15 3t-8 13t3.5 15.5zM398 228q-38 51 -115 56q-84 5 -126 -45q-36 -45 -27 -107q10 -61 57 -86q54 -29 133 13q49 25 82 67q1 55 -2 99q-1 2 -2 3z" />
<glyph unicode="&#xe6;" horiz-adv-x="776" d="M387 241q-38 39 -104 43q-84 5 -126 -45q-36 -45 -27 -107q10 -61 57 -86q54 -29 133 13q49 25 82 67v4q-18 51 -15 110v1zM113 400q30 43 64.5 69.5t81.5 30.5q116 9 159 -132q24 55 61 93q26 27 60 37q33 11 64.5 6.5t62.5 -20.5q44 -24 75.5 -66t37.5 -90q2 -16 0 -31 q-3 -29 -21 -39l-7 -3h-2h-4h-9h-31q-12 0 -44 0.5t-51 0.5q-149 0 -165 -2h-7q5 -52 4 -117q20 -50 63 -79q33 -23 72 -28.5t72 5t57.5 37.5t29.5 65q1 8 7.5 13t15 4t13.5 -7.5t4 -15.5q-7 -52 -39.5 -87t-75.5 -47.5t-91.5 -5.5t-86.5 33q-25 17 -43 39q-1 -11 -2 -29.5 t-1 -24.5q0 -8 -6.5 -13.5t-14.5 -5.5t-13.5 6.5t-5.5 14.5q0 7 1 25t2 30q-27 -25 -62 -43q-97 -51 -170 -12q-32 17 -51.5 47.5t-25.5 67.5q-13 80 35 138q55 67 159 60q64 -4 108 -36l1 4l-1 2q-12 83 -43.5 126.5t-86.5 39.5q-36 -3 -63.5 -24t-54.5 -60 q-4 -6 -12.5 -7.5t-15 3t-8 13t3.5 15.5zM439 294q18 2 171 2q19 0 51.5 -0.5t43.5 -0.5h31h1h1q1 3 1 7q1 10 0 22q-4 37 -29.5 71t-62.5 54q-34 20 -72.5 17t-67.5 -33q-53 -55 -72 -140q2 0 4 1z" />
<glyph unicode="&#xe7;" horiz-adv-x="439" d="M256 -27l-30 -34l-9 -11q20 -4 31 -7q29 -10 42 -30q16 -26 4 -65q-10 -31 -33.5 -44.5t-52.5 -11.5q-50 2 -91 33q-16 12 -4 28t28 4q31 -24 69 -26q37 -2 46 29q7 22 0 32q-5 8 -20 13q-6 1 -35 7q-11 2 -17 5q-16 7 -17 23q0 5 2 11q1 2 3 5l6 9q6 8 17 21l20 23 q-64 12 -112 62.5t-61 114.5q-11 60 5 130q16 69 54 122q27 38 62 61q34 23 79 29.5t94 -16.5q63 -27 81 -102q2 -8 -2 -15.5t-12 -9t-15.5 2.5t-8.5 12q-14 56 -59 76q-38 17 -73 12.5t-63 -23t-51 -50.5q-33 -47 -47.5 -108t-3.5 -113q13 -70 72.5 -115t127.5 -30 q6 2 13.5 5.5t13.5 7.5l14 10l16 11q27 17 41 34t21 43q1 8 8.5 12t15.5 2.5t12 -9t2 -15.5q-8 -34 -27 -57q-18 -22 -51 -44l-14 -9l-18 -12q-7 -5 -18 -10t-21 -7q-15 -4 -30 -5q-1 -6 -4 -11z" />
<glyph unicode="&#xe8;" horiz-adv-x="463" d="M92 260l325 -2q-10 102 -56 151.5t-104 46.5q-57 -4 -104.5 -55t-60.5 -141zM432 219v-1l-344 2q-2 -79 36 -127.5t96 -60.5q60 -12 117 18q56 29 85 96q3 7 10.5 10.5t15 0t11 -11t-0.5 -15.5q-33 -80 -103 -116t-143 -21q-76 15 -123 79t-40 162q8 115 67 186t138 76 q82 5 140 -63t64 -194q0 -8 -5.5 -14.5t-13.5 -6.5q-4 0 -7 1zM202 699q11 -16 23 -29t32 -32l31 -27q6 -5 6 -13.5t-5.5 -14.5t-14 -6t-14.5 5l-29 26q-22 20 -36 35t-27 34q-4 7 -2.5 15t8.5 12.5t15 3t13 -8.5z" />
<glyph unicode="&#xe9;" horiz-adv-x="463" d="M92 260l325 -2q-10 102 -56 151.5t-104 46.5q-57 -4 -104.5 -55t-60.5 -141zM432 219v-1l-344 2q-2 -79 36 -127.5t96 -60.5q60 -12 117 18q56 29 85 96q3 7 10.5 10.5t15 0t11 -11t-0.5 -15.5q-33 -80 -103 -116t-143 -21q-76 15 -123 79t-40 162q8 115 67 186t138 76 q82 5 140 -63t64 -194q0 -8 -5.5 -14.5t-13.5 -6.5q-4 0 -7 1zM170 592q15 18 42 61q28 43 47 64q6 6 14 6.5t14 -5t6.5 -13.5t-4.5 -14q-15 -17 -43 -60q-28 -44 -46 -65q-5 -6 -13.5 -7t-14.5 4.5t-7 14t5 14.5z" />
<glyph unicode="&#xea;" horiz-adv-x="463" d="M92 260l325 -2q-10 102 -56 151.5t-104 46.5q-57 -4 -104.5 -55t-60.5 -141zM432 219v-1l-344 2q-2 -79 36 -127.5t96 -60.5q60 -12 117 18q56 29 85 96q3 7 10.5 10.5t15 0t11 -11t-0.5 -15.5q-33 -80 -103 -116t-143 -21q-76 15 -123 79t-40 162q8 115 67 186t138 76 q82 5 140 -63t64 -194q0 -8 -5.5 -14.5t-13.5 -6.5q-4 0 -7 1zM157 583q28 64 48 89q27 34 58 26q22 -5 49 -40q4 -5 51 -72q5 -7 3.5 -15.5t-8 -13t-15 -3t-12.5 7.5q-47 67 -51 72q-18 23 -27 26q-5 1 -16 -13q-17 -21 -44 -80q-3 -8 -11 -11t-15.5 0.5t-10.5 11.5t1 15z " />
<glyph unicode="&#xeb;" horiz-adv-x="463" d="M92 260l325 -2q-10 102 -56 151.5t-104 46.5q-57 -4 -104.5 -55t-60.5 -141zM432 219v-1l-344 2q-2 -79 36 -127.5t96 -60.5q60 -12 117 18q56 29 85 96q3 7 10.5 10.5t15 0t11 -11t-0.5 -15.5q-33 -80 -103 -116t-143 -21q-76 15 -123 79t-40 162q8 115 67 186t138 76 q82 5 140 -63t64 -194q0 -8 -5.5 -14.5t-13.5 -6.5q-4 0 -7 1zM202 640q0 -8 -6 -14t-14 -6t-14 6t-6 14t6 14t14 6t14 -6t6 -14zM353 636q0 -8 -6 -14t-14 -6t-14 6t-6 14t6 14t14 6t14 -6t6 -14z" />
<glyph unicode="&#xec;" horiz-adv-x="157" d="M141 488q3 -78 3 -232t3 -232q0 -8 -5.5 -14.5t-13.5 -6.5t-14.5 5.5t-6.5 13.5q-3 77 -3 232t-3 232q0 8 5.5 14.5t13.5 6.5t14.5 -5.5t6.5 -13.5zM55 700l70 -79q6 -6 5 -14.5t-7 -14t-14.5 -4.5t-13.5 7l-70 77q-5 6 -5 14.5t6 14t14.5 5.5t14.5 -6z" />
<glyph unicode="&#xed;" horiz-adv-x="200" d="M142 488q3 -78 3 -232t3 -232q0 -8 -5.5 -14.5t-13.5 -6.5t-14.5 5.5t-6.5 13.5q-3 77 -3 232t-3 232q0 8 5.5 14.5t13.5 6.5t14.5 -5.5t6.5 -13.5zM74 595q42 58 84 95q6 6 14.5 5t14 -7t4.5 -14.5t-7 -13.5q-38 -34 -78 -89q-5 -6 -13 -7.5t-14.5 3.5t-8 13t3.5 15z " />
<glyph unicode="&#xee;" horiz-adv-x="233" d="M141 488q3 -78 3 -232t3 -232q0 -8 -5.5 -14.5t-13.5 -6.5t-14.5 5.5t-6.5 13.5q-3 77 -3 232t-3 232q0 8 5.5 14.5t13.5 6.5t14.5 -5.5t6.5 -13.5zM9 606q20 18 54 57q26 29 42 33q25 7 53 -21q17 -17 61 -75q5 -6 4 -14.5t-7.5 -13.5t-15 -4t-13.5 8q-42 55 -57 70 q-10 11 -15 11q-5 -1 -22 -21q-35 -40 -56 -60q-6 -5 -14.5 -5t-14 6t-5.5 14.5t6 14.5z" />
<glyph unicode="&#xef;" horiz-adv-x="225" d="M141 488q3 -78 3 -232t3 -232q0 -8 -5.5 -14.5t-13.5 -6.5t-14.5 5.5t-6.5 13.5q-3 77 -3 232t-3 232q0 8 5.5 14.5t13.5 6.5t14.5 -5.5t6.5 -13.5zM55 632q0 -8 -6 -14t-14 -6t-14 6t-6 14t6 14t14 6t14 -6t6 -14zM215 630q0 -8 -6 -14t-14 -6t-14 6t-6 14t6 14t14 6 t14 -6t6 -14z" />
<glyph unicode="&#xf0;" horiz-adv-x="472" d="M442 312q-21 43 -67 70q-68 39 -152 20q-71 -17 -96 -74q-22 -52 -1 -119.5t73 -109.5t113 -32q92 14 120 116q17 57 10 129zM244 640q-26 -18 -102 -81q-7 -6 -15 -5t-13.5 7.5t-4.5 14.5t7 13q68 58 90 73q-26 14 -55 24q-8 3 -11.5 10.5t-0.5 15.5t10.5 11.5t15.5 0.5 q42 -16 79 -37l9 5q10 6 25 13t25 13t19 13q7 6 15 5t13.5 -7.5t4.5 -14.5t-7 -13q-15 -13 -67 -39q57 -41 96 -95q77 -106 94 -184q7 -29 10 -61q3 -6 6 -13q4 -11 -3 -19q2 -64 -13 -118q-16 -58 -54 -96q-38 -39 -99 -49q-79 -12 -142.5 40t-87.5 130q-26 81 3 147 q32 76 124 96q98 23 180 -24q17 -10 32 -22q-21 64 -82 149q-41 57 -101 97z" />
<glyph unicode="&#xf1;" horiz-adv-x="441" d="M116 351q-3 -307 -3 -332q0 -8 -6 -14t-14 -6t-14 6t-6 14q0 25 3 332v7q1 69 1 123q0 8 6 14t14 6t14 -6t6 -14v-50q38 45 89 64q32 10 61.5 10t59.5 -17t52 -50q44 -67 51 -208q3 -16 1 -112.5t-2 -98.5q0 -8 -6 -14t-14 -6t-14 6t-6 14q0 2 2 97t-1 112 q-6 130 -45 188q-47 70 -125 42q-34 -13 -62.5 -42t-41.5 -65zM95 590q32 48 63 57q26 8 57 -11q7 -4 15 -10l14 -10q5 -3 12.5 -7t13 -5.5t13.5 -1.5t16 2t26 18q32 29 33 29q7 5 15.5 3.5t13 -8t3 -15t-7.5 -12.5q-1 -1 -31 -27q-26 -22 -42 -26q-12 -5 -26.5 -3.5 t-23.5 3t-20.5 7.5t-17.5 10t-14.5 10.5t-12.5 8.5q-15 10 -25 7q-16 -5 -40 -41q-5 -7 -13 -8.5t-15 3t-8.5 12.5t2.5 15z" />
<glyph unicode="&#xf2;" horiz-adv-x="443" d="M257 462q-57 2 -97 -46.5t-52 -124.5q-14 -87 17 -159q31 -71 102 -91q75 -20 125 35q48 53 51 144q3 80 -35 148q-37 67 -111 94zM308 483q70 -39 104 -111.5t31 -152.5q-4 -106 -61 -170q-66 -73 -165 -46q-61 16 -99 65q-38 50 -49 108.5t-1 120.5t41 114.5t77 76.5 q-1 4 -1 9q1 9 7.5 14t14.5 4q30 -4 57 -13q15 -1 30 -5q11 -2 14 -14zM189 698q15 -16 34 -43l31 -43q5 -6 4 -14.5t-7.5 -13.5t-15 -4t-13.5 8l-31 43q-19 26 -32 41q-5 6 -4.5 14.5t6.5 13.5t14.5 4.5t13.5 -6.5z" />
<glyph unicode="&#xf3;" horiz-adv-x="443" d="M257 462q-57 2 -97 -46.5t-52 -124.5q-14 -87 17 -159q31 -71 102 -91q75 -20 125 35q48 53 51 144q3 80 -35 148q-37 67 -111 94zM308 483q70 -39 104 -111.5t31 -152.5q-4 -106 -61 -170q-66 -73 -165 -46q-61 16 -99 65q-38 50 -49 108.5t-1 120.5t41 114.5t77 76.5 q-1 4 -1 9q1 9 7.5 14t14.5 4q30 -4 57 -13q15 -1 30 -5q11 -2 14 -14zM288 667q-13 -18 -35 -44l-35 -41q-5 -6 -13 -7t-14.5 4.5t-7.5 13.5t4 14q6 8 36 42q20 24 31 40q5 7 13 8.5t15 -3t8.5 -12.5t-2.5 -15z" />
<glyph unicode="&#xf4;" horiz-adv-x="443" d="M257 462q-57 2 -97 -46.5t-52 -124.5q-14 -87 17 -159q31 -71 102 -91q75 -20 125 35q48 53 51 144q3 80 -35 148q-37 67 -111 94zM308 483q70 -39 104 -111.5t31 -152.5q-4 -106 -61 -170q-66 -73 -165 -46q-61 16 -99 65q-38 50 -49 108.5t-1 120.5t41 114.5t77 76.5 q-1 4 -1 9q1 9 7.5 14t14.5 4q30 -4 57 -13q15 -1 30 -5q11 -2 14 -14zM148 606l25 37q16 24 23 33q25 35 46 44q30 12 61 -16q24 -21 59 -77q4 -7 2.5 -15.5t-8.5 -12.5t-15.5 -2.5t-12.5 8.5q-32 52 -52 70q-12 10 -19 8q-10 -5 -28 -30l-23 -33l-26 -38q-4 -6 -12.5 -7.5 t-15 3t-8 13t3.5 15.5z" />
<glyph unicode="&#xf5;" horiz-adv-x="443" d="M257 462q-57 2 -97 -46.5t-52 -124.5q-14 -87 17 -159q31 -71 102 -91q75 -20 125 35q48 53 51 144q3 80 -35 148q-37 67 -111 94zM308 483q70 -39 104 -111.5t31 -152.5q-4 -106 -61 -170q-66 -73 -165 -46q-61 16 -99 65q-38 50 -49 108.5t-1 120.5t41 114.5t77 76.5 q-1 4 -1 9q1 9 7.5 14t14.5 4q30 -4 57 -13q15 -1 30 -5q11 -2 14 -14zM93 607q15 36 45 58q38 28 79 14q10 -4 24 -17q12 -11 14 -12q27 -18 52 -9q24 8 50 38q5 6 13.5 7t14.5 -4.5t7 -14t-5 -14.5q-33 -38 -67 -50q-44 -15 -87 13q-4 3 -19 17q-8 7 -11 8q-20 7 -41 -9 q-21 -15 -33 -41q-3 -8 -10.5 -11t-15.5 0.5t-11 11t1 15.5z" />
<glyph unicode="&#xf6;" horiz-adv-x="443" d="M257 462q-57 2 -97 -46.5t-52 -124.5q-14 -87 17 -159q31 -71 102 -91q75 -20 125 35q48 53 51 144q3 80 -35 148q-37 67 -111 94zM308 483q70 -39 104 -111.5t31 -152.5q-4 -106 -61 -170q-66 -73 -165 -46q-61 16 -99 65q-38 50 -49 108.5t-1 120.5t41 114.5t77 76.5 q-1 4 -1 9q1 9 7.5 14t14.5 4q30 -4 57 -13q15 -1 30 -5q11 -2 14 -14zM195 633q0 -8 -6 -14t-14 -6t-14 6t-6 14t6 14t14 6t14 -6t6 -14zM353 632q0 -8 -6 -14t-14 -6t-14 6t-6 14t6 14t14 6t14 -6t6 -14z" />
<glyph unicode="&#xf7;" horiz-adv-x="515" d="M17 256q78 0 234 2t234 2q8 0 14 -6t6 -14t-6 -14t-14 -6q-78 0 -234 -2t-234 -2q-8 0 -14 6t-6 14t6 14t14 6zM290 429q0 -8 -6 -14t-14 -6t-14 6t-6 14t6 14t14 6t14 -6t6 -14zM290 60q0 -8 -6 -14t-14 -6t-14 6t-6 14t6 14t14 6t14 -6t6 -14z" />
<glyph unicode="&#xf8;" horiz-adv-x="519" d="M374 392q-37 46 -92 66q-57 2 -97 -46.5t-52 -124.5q-14 -87 16 -155q72 79 225 260zM397 358q-152 -180 -228 -263q32 -44 83 -58q75 -20 125 35q48 53 51 144q3 78 -31 142zM141 65l-54 -55q-6 -6 -14 -6t-14 6t-6 14t6 14l60 62q-43 85 -26 193q10 62 41 114.5 t77 76.5q-1 4 -1 9q1 9 7.5 14t14.5 4q30 -4 57 -13q15 -1 30 -5q11 -2 14 -14q39 -22 67 -55l74 86q5 6 13.5 7t14.5 -4.5t7 -14t-5 -14.5l-80 -94q47 -78 44 -175q-4 -106 -61 -170q-66 -73 -165 -46q-62 16 -101 66z" />
<glyph unicode="&#xf9;" horiz-adv-x="445" d="M121 483q-13 -107 -14 -201q0 -135 28 -187q30 -56 69 -63q34 -6 74 23q38 28 70 78t44 94q0 2 1 3q2 171 2 248q0 8 6 14t14 6t14 -6t6 -14q0 -77 -2 -232t-2 -233q0 -8 -6 -14t-14 -6t-14 6t-6 14q0 51 1 114q-40 -66 -91 -104q-54 -40 -104 -31q-58 11 -98 85 q-32 60 -32 205q1 92 14 205q1 9 7.5 14t15 4t13.5 -7.5t4 -14.5zM201 704q50 -62 70 -98q4 -8 1.5 -16t-10 -12t-15.5 -1.5t-12 9.5q-18 33 -66 92q-5 7 -4 15t7.5 13.5t14.5 4.5t14 -7z" />
<glyph unicode="&#xfa;" horiz-adv-x="445" d="M121 483q-13 -107 -14 -201q0 -135 28 -187q30 -56 69 -63q34 -6 74 23q38 28 70 78t44 94q0 2 1 3q2 171 2 248q0 8 6 14t14 6t14 -6t6 -14q0 -77 -2 -232t-2 -233q0 -8 -6 -14t-14 -6t-14 6t-6 14q0 51 1 114q-40 -66 -91 -104q-54 -40 -104 -31q-58 11 -98 85 q-32 60 -32 205q1 92 14 205q1 9 7.5 14t15 4t13.5 -7.5t4 -14.5zM188 597q15 13 27.5 28.5t27.5 36.5l26 37q6 6 14 7t14.5 -4.5t7.5 -13.5t-4 -15q-8 -9 -24 -32t-31.5 -42t-31.5 -32q-7 -6 -15 -5t-13.5 7.5t-4.5 14.5t7 13z" />
<glyph unicode="&#xfb;" horiz-adv-x="445" d="M121 483q-13 -107 -14 -201q0 -135 28 -187q30 -56 69 -63q34 -6 74 23q38 28 70 78t44 94q0 2 1 3q2 171 2 248q0 8 6 14t14 6t14 -6t6 -14q0 -77 -2 -232t-2 -233q0 -8 -6 -14t-14 -6t-14 6t-6 14q0 51 1 114q-40 -66 -91 -104q-54 -40 -104 -31q-58 11 -98 85 q-32 60 -32 205q1 92 14 205q1 9 7.5 14t15 4t13.5 -7.5t4 -14.5zM152 610l50 55q24 28 42 31q23 5 50 -22q16 -16 57 -71q12 -16 -4 -28t-28 4q-39 52 -53 67q-11 10 -15 11q-5 -1 -19 -18q-44 -50 -51 -57q-5 -6 -13.5 -6t-14.5 5.5t-6 14t5 14.5z" />
<glyph unicode="&#xfc;" horiz-adv-x="445" d="M121 483q-13 -107 -14 -201q0 -135 28 -187q30 -56 69 -63q34 -6 74 23q38 28 70 78t44 94q0 2 1 3q2 171 2 248q0 8 6 14t14 6t14 -6t6 -14q0 -77 -2 -232t-2 -233q0 -8 -6 -14t-14 -6t-14 6t-6 14q0 51 1 114q-40 -66 -91 -104q-54 -40 -104 -31q-58 11 -98 85 q-32 60 -32 205q1 92 14 205q1 9 7.5 14t15 4t13.5 -7.5t4 -14.5zM204 616q0 -8 -6 -14t-14 -6t-14 6t-6 14t6 14t14 6t14 -6t6 -14zM351 615q0 -8 -6 -14t-14 -6t-14 6t-6 14t6 14t14 6t14 -6t6 -14z" />
<glyph unicode="&#xfd;" horiz-adv-x="389" d="M233 143q91 278 110 340q2 8 9.5 12t15.5 1.5t12 -10t1 -15.5q-21 -69 -97.5 -300t-110.5 -359q-2 -8 -9 -12t-15 -2t-12 9t-2 15q29 111 78 261q-43 113 -159 388q-4 8 -0.5 15.5t11 11t15 0t10.5 -10.5zM182 577q21 21 80 95q6 7 14 8t14.5 -4.5t7.5 -13.5t-4 -14 q-61 -76 -84 -99q-6 -6 -14 -6t-14 6t-6 14t6 14z" />
<glyph unicode="&#xfe;" horiz-adv-x="452" d="M90 297q-1 -130 -1 -151q3 -3 4 -7q17 -56 58.5 -83t92 -24t92 35t57.5 86q23 83 -6 166t-85 122q-55 39 -106 14q-63 -31 -101 -150q-1 -5 -5 -8zM48 -160q0 139 2 416t2 416q0 8 6 14t14 6t14 -6t6 -14q0 -114 -1 -273q37 67 87 92q73 36 147 -17q67 -48 100 -142 t6 -189q-19 -68 -70.5 -107.5t-114.5 -43.5q-45 -3 -87 14.5t-70 54.5q-1 -124 -1 -221q0 -8 -6 -14t-14 -6t-14 6t-6 14z" />
<glyph unicode="&#xff;" horiz-adv-x="389" d="M233 143q91 278 110 340q2 8 9.5 12t15.5 1.5t12 -10t1 -15.5q-21 -69 -97.5 -300t-110.5 -359q-2 -8 -9 -12t-15 -2t-12 9t-2 15q29 111 78 261q-43 113 -159 388q-4 8 -0.5 15.5t11 11t15 0t10.5 -10.5zM183 635q0 -8 -6 -14t-14 -6t-14 6t-6 14t6 14t14 6t14 -6t6 -14 zM332 632q0 -8 -6 -14t-14 -6t-14 6t-6 14t6 14t14 6t14 -6t6 -14z" />
<glyph unicode="&#x2018;" horiz-adv-x="158" d="M147 677q-17 -13 -30 -40.5t-18 -59.5q-11 -71 25 -96q6 -4 7.5 -12.5t-3 -15t-13 -8t-15.5 3.5q-28 20 -37.5 56.5t-3.5 77.5q6 37 22.5 72t39.5 54q7 5 15 4t13.5 -7.5t4.5 -14.5t-7 -14z" />
<glyph unicode="&#x2019;" horiz-adv-x="169" d="M136 693q22 -40 24 -83t-12.5 -80.5t-41.5 -72.5q-5 -7 -13.5 -8t-15 4t-7.5 13.5t4 14.5q37 46 45 94.5t-17 97.5q-5 8 -2.5 15.5t10 12t15 2t11.5 -9.5z" />
<glyph unicode="&#x201c;" horiz-adv-x="269" d="M191 678q-83 -109 -32 -190q4 -7 2.5 -15t-8.5 -12.5t-15 -3t-13 8.5q-66 105 34 236q5 7 13.5 8t15 -4t7.5 -13.5t-4 -14.5zM322 675q-20 -34 -28 -51q-10 -21 -18 -46.5t-4 -49t18 -45.5q4 -7 2.5 -15t-8.5 -12.5t-15 -3t-13 8.5q-16 25 -21 52t-3 48.5t13 49t19 43 t24 41.5q4 7 12 9t15 -2t9 -12t-2 -15z" />
<glyph unicode="&#x201d;" horiz-adv-x="250" d="M67 699q44 -46 38.5 -117.5t-57.5 -109.5q-7 -5 -15 -4t-13 8t-4 15t8 13q37 27 41 80t-28 87q-5 6 -5 14.5t6 14t14.5 5.5t14.5 -6zM223 689q26 -54 16.5 -114t-44.5 -104q-5 -7 -13.5 -8t-15 4t-7.5 13.5t4 14.5q29 37 36.5 86t-12.5 88q-4 8 -1.5 16t10 12t15.5 1.5 t12 -9.5z" />
<glyph unicode="&#x20ac;" horiz-adv-x="668" d="M567 519q-4 39 -24.5 74.5t-52.5 54.5q-106 63 -185 -10q-34 -32 -56 -82.5t-28 -106.5q24 1 104 3t123 4q8 0 14.5 -5.5t6.5 -13.5t-5.5 -14.5t-13.5 -6.5q-44 -2 -124.5 -4t-108.5 -3q-3 -59 0 -107h255q8 0 14 -6t6 -14t-6 -14t-14 -6h-251q14 -97 61 -163 q34 -47 88.5 -62.5t108.5 3t89 65.5q15 20 25.5 48.5t15 48.5t10.5 58q2 8 8.5 12.5t15 3t13 -8t3.5 -15.5q-7 -39 -11.5 -59t-17 -54t-30.5 -58q-42 -56 -107.5 -79t-133 -4t-109.5 77q-54 76 -69 186q-69 -2 -129 -6q-8 -1 -14 4.5t-7 14t4.5 14.5t14.5 7q58 4 127 6 q-3 48 0 106q-57 -2 -105 -5q-8 -1 -14 4.5t-7 14t4.5 14.5t14.5 7q49 3 110 6q6 63 31 122q26 59 67 97q30 28 65 40.5t78.5 7t88.5 -32.5q41 -24 66.5 -67.5t30.5 -91.5q1 -8 -4.5 -14.5t-13.5 -7.5t-14.5 4.5t-7.5 13.5z" />
<glyph unicode="&#x25fc;" horiz-adv-x="510" d="M0 510h510v-510h-510v510z" />
<glyph unicode="&#x3000;" horiz-adv-x="1000" />
</font>
</defs>
</svg>
